Скачать Путь сквозь снега (Андре Тешине) [2017, детектив, мелодрама, WEB-DL 1080p] в Тас-икс (Tas-ix)

Ответить на тему
 

Rtuty ®

Стаж: 1 год 7 месяцев

Сообщений: 308

Симпатии: 60

[sh]Путь сквозь снега[/sh]- -Год выпуска: 2017
Страна: Россия, Украина
Жанр: детектив, мелодрама
Возрастное ограничение: [sh]12+[/sh]
Продолжительность: 01:31:10
Перевод: Не требуется
Cубтитры: нет--Режиссер: Андре Тешине--В ролях: Анастасия Стежко , Денис Шведов , Константин Косинский , Георгий Поволоцкий , Игорь Гнездилов , Тамара Морозова , Алексей Череватенко , Евгений Рачок--Описание: 30 декабря Эля собирается лететь из Петербурга в Москву, на встречу с женихом — они познакомились по интернету и решили вместе встретить Новый год. Жених просит ее захватить с собой кейс с документами, который ей передадут в аэропорту. Тем временем Денис — молодой неоперившийся бандит — получает от главаря банды задание перехватить этот кейс в аэропорту. Сделать это сразу ему не удается. К тому же из-за непогоды отменяют все рейсы, и в результате Эля с Денисом берут в прокате одну машину на двоих. В дороге он не раз попытается похитить кейс, но это будет не так-то просто. Их ожидает долгий путь, полный опасностей, приключений и неожиданных открытий.--Качество видео: WEB-DL 1080p
Формат видео: MKV-Видео: MPEG4 Video (H264) 1920x1080 25fps 5 120 kb/s
Аудио: Dolby AC3 48000Hz stereo 256kbps

MediaInfo

General
Unique ID : 212561169603367534327229164913267490031 (0x9FE9CACAB0BD904E9B07246DFBC6BCEF)
Complete name : G:\Фильмы\put_skvoz_snega_2017.mkv
Format : Matroska
Format version : Version 4 / Version 2
File size : 3.42 GiB
Duration : 1 h 31 min
Overall bit rate : 5 372 kb/s
Encoded date : UTC 2018-01-03 19:05:52
Writing application : mkvmerge v17.0.0 ('Be Ur Friend') 64-bit
Writing library : libebml v1.3.5 + libmatroska v1.4.8
Video
ID : 1
Format : AVC
Format/Info : Advanced Video Codec
Format profile : [email protected]
Format settings : CABAC / 4 Ref Frames
Format settings, CABAC : Yes
Format settings, ReFrames : 4 frames
Codec ID : V_MPEG4/ISO/AVC
Duration : 1 h 31 min
Bit rate : 5 120 kb/s
Width : 1 920 pixels
Height : 1 080 pixels
Display aspect ratio : 16:9
Frame rate mode : Constant
Frame rate : 25.000 FPS
Color space : YUV
Chroma subsampling : 4:2:0
Bit depth : 8 bits
Scan type : Progressive
Bits/(Pixel*Frame) : 0.099
Stream size : 3.26 GiB (95%)
Title : WEB-DLRip by Silverok
Writing library : x264 core 142
Encoding settings : cabac=1 / ref=3 / deblock=1:0:0 / analyse=0x3:0x113 / me=hex / subme=7 / psy=1 / psy_rd=1.00:0.00 / mixed_ref=1 / me_range=16 / chroma_me=1 / trellis=1 / 8x8dct=1 / cqm=0 / deadzone=21,11 / fast_pskip=1 / chroma_qp_offset=-2 / threads=48 / lookahead_threads=8 / sliced_threads=0 / nr=0 / decimate=1 / interlaced=0 / bluray_compat=0 / constrained_intra=0 / bframes=6 / b_pyramid=2 / b_adapt=1 / b_bias=0 / direct=1 / weightb=1 / open_gop=0 / weightp=2 / keyint=50 / keyint_min=26 / scenecut=0 / intra_refresh=0 / rc_lookahead=40 / rc=2pass / mbtree=1 / bitrate=5120 / ratetol=1.0 / qcomp=0.60 / qpmin=0 / qpmax=69 / qpstep=4 / cplxblur=20.0 / qblur=0.5 / vbv_maxrate=7680 / vbv_bufsize=20480 / nal_hrd=none / filler=0 / ip_ratio=1.40 / aq=1:1.00
Default : Yes
Forced : No
Audio
ID : 2
Format : AC-3
Format/Info : Audio Coding 3
Codec ID : A_AC3
Duration : 1 h 31 min
Bit rate mode : Constant
Bit rate : 256 kb/s
Channel(s) : 2 channels
Channel positions : Front: L R
Sampling rate : 48.0 kHz
Frame rate : 31.250 FPS (1536 SPF)
Bit depth : 16 bits
Compression mode : Lossy
Stream size : 167 MiB (5%)
Language : Russian
Service kind : Complete Main
Default : Yes
Forced : No
-

Создавать темы 05-Янв-2018 14:43

[Профиль]  [ЛС] 
Показать сообщения:    
Ответить на тему

Текущее время: 13-Дек 21:45

Часовой пояс: UTC + 5



Вы не можете начинать темы
Вы не можете отвечать на сообщения
Вы не можете редактировать свои сообщения
Вы не можете удалять свои сообщения
Вы не можете голосовать в опросах
Вы не можете прикреплять файлы к сообщениям
Вы не можете скачивать файлы