Скачать Скиф (Рустам Мосафир) [2017, драма, история, фэнтези, боевик, приключения WEB-DL 1080р] [iTunes] в Тас-икс (Tas-ix)

Ответить на тему
 

ruhal ®

Стаж: 3 года 8 месяцев

Сообщений: 2039

Симпатии: 2486

Скиф- Год выпуска: 2017
Страна: Россия
Жанр: драма, история, фэнтези, боевик, приключения
Продолжительность: 01:41:01
Перевод: Оригинал [iTunes]
Субтитры: нет-Режиссер: Рустам Мосафир-В ролях: Алексей Фаддеев, Виталий Кравченко, Александр Кузнецов, Александр Пацевич, Юрий Цурило, Андрей Пермяков, Василиса Измайлова, Алексей Овсянников, Фёдор Рощин, Рустам Мосафир-Описание: Действие фильма происходит во время смены цивилизаций. В Евразии начинается новая эра. Ушли в небытие гордые воины - скифы, их вымирающие потомки превратились в безжалостных наемных убийц, «волков Ареса». Ратнику Лютобору предстоит тяжелое испытание. Втянутый в междоусобные интриги он отправляется в опасный путь ради спасения семьи, а его проводником становится пленный скиф Куница. Они - враги и молятся разным богам, но вынуждены идти вместе. Через дикий степной мир к пристанищу последних скифов, где их ждет почти неминуемая смерть...-Качество: WEB-DL 1080р
Формат: MKV
Видео: AVC, 4 449 kb/s, 1920х804
Аудио№1: Русский AC3, 6 ch, 384 Кбит/с-Скриншоты:

MI

Video
ID : 1
Format : AVC
Format/Info : Advanced Video Codec
Format profile : [email protected]
Format settings : CABAC / 5 Ref Frames
Format settings, CABAC : Yes
Format settings, ReFrames : 5 frames
Codec ID : V_MPEG4/ISO/AVC
Duration : 1 h 40 min
Bit rate : 4 449 kb/s
Width : 1 920 pixels
Height : 804 pixels
Display aspect ratio : 2.40:1
Frame rate mode : Constant
Frame rate : 25.000 FPS
Color space : YUV
Chroma subsampling : 4:2:0
Bit depth : 8 bits
Scan type : Progressive
Bits/(Pixel*Frame) : 0.115
Stream size : 3.11 GiB (90%)
Title : SKIF_WEB_DL_1080p-BLUEBIRD
Language : English
Default : Yes
Forced : No
Color range : Limited
Color primaries : BT.709
Transfer characteristics : BT.709
Matrix coefficients : BT.709
Audio
ID : 2
Format : AC-3
Format/Info : Audio Coding 3
Codec ID : A_AC3
Duration : 1 h 40 min
Bit rate mode : Constant
Bit rate : 384 kb/s
Channel(s) : 6 channels
Channel positions : Front: L C R, Side: L R, LFE
Sampling rate : 48.0 kHz
Frame rate : 31.250 FPS (1536 SPF)
Bit depth : 16 bits
Compression mode : Lossy
Stream size : 275 MiB (8%)
Title : [ORIGINAL] DD 5.1 @ 384 kbps (iTunes)
Language : Russian
Service kind : Complete Main
Default : Yes
Forced : No
Menu
00:00:00.000 : en:Глава 1
00:05:12.360 : en:Глава 2
00:11:34.680 : en:Глава 3
00:17:38.400 : en:Глава 4
00:24:35.840 : en:Глава 5
00:30:40.600 : en:Глава 6
00:37:38.320 : en:Глава 7
00:43:34.960 : en:Глава 8
00:50:05.840 : en:Глава 9
00:56:41.760 : en:Глава 10
01:02:36.120 : en:Глава 11
01:10:08.200 : en:Глава 12
01:14:43.640 : en:Глава 13
01:19:27.320 : en:Глава 14
01:25:07.920 : en:Глава 15

Создавать темы 20-Фев-2018 06:02

[Профиль]  [ЛС] 
Показать сообщения:    
Ответить на тему

Текущее время: 13-Дек 05:40

Часовой пояс: UTC + 5



Вы не можете начинать темы
Вы не можете отвечать на сообщения
Вы не можете редактировать свои сообщения
Вы не можете удалять свои сообщения
Вы не можете голосовать в опросах
Вы не можете прикреплять файлы к сообщениям
Вы не можете скачивать файлы