Скачать Охотники / The Hunt (Роб Салливан) [2015, Великобритания, Документальный, Фауна, Флора, Природа, HDTVRip] [HDTV [H.264/1080i]] (VO) (Sub Rus + Original Eng) в Тас-икс (Tas-ix)

Ответить на тему
 

botti ®

Стаж: 5 лет 8 месяцев

Сообщений: 7

Симпатии: 1

BBC: Охотники / The Hunt / HDTV [H.264/1080i]

Страна: Великобритания, Silverback Films, British Broadcasting Corporation (BBC), BBC Worldwide
Жанр: Документальный, Фауна, Флора, Природа
Год выпуска: 2015
Продолжительность: 420 мин
Перевод: Одноголосый закадровый, профессиональный (Николай Дроздов)
Cубтитры: русские
Оригинальная аудиодорожка: английский
Режиссер: Роб Салливан
В ролях: Дэвид Аттенборо, Дэмиен Буассо
Описание: Настоящая драма дикой природы — поединок между хищником и жертвой. Этот новаторский документальный триллер передает накал, психологию и красоту охоты. Вместо привычных кровавых сцен здесь подробно показывают невероятные стратегии хищников и тактики, используемые жертвами ради спасения. Говорят, в природе выживает сильнейший… Сложно поверить, но чаще проигрывают хищники. Причины этих поражений и другие тонкости борьбы за выживание рассматриваются в каждом эпизоде с учетом особенностей среды обитания. Беспощадный климат севера, густые леса, опасный подводный мир, открытые просторы пустыни — каждая экосистема таит свои секреты и ловушки.
Качество видео: HDTV [1080i]
Формат видео: TS
Видео: AVC/H.264, 1920х1080, ~6793 Kbps
Аудио: MP2, 2 ch, 48,0 kHz, 192 kbps | Русский VO
Аудио 2: MP2, 2 ch, 48,0 kHz, 192 kbps | Eng (оригинал)
Аудио 3: АС3, 6 ch, 48,0 kHz, 384 kbps | Русский VO

MediaInfo

General
ID : 16 (0x10)
Complete name : G:\MEDIA\The Hunt\01_The Hunt_HD.ts
Format : MPEG-TS
File size : 2.69 GiB
Duration : 48 min 20 s
Overall bit rate mode : Variable
Overall bit rate : 7 963 kb/s
Video
ID : 1812 (0x714)
Menu ID : 812 (0x32C)
Format : AVC
Format/Info : Advanced Video Codec
Format profile : [email protected]
Format settings : CABAC / 4 Ref Frames
Format settings, CABAC : Yes
Format settings, ReFrames : 4 frames
Codec ID : 27
Duration : 48 min 20 s
Bit rate : 6 794 kb/s
Width : 1 920 pixels
Height : 1 080 pixels
Display aspect ratio : 16:9
Frame rate : 25.000 FPS
Standard : PAL
Color space : YUV
Chroma subsampling : 4:2:0
Bit depth : 8 bits
Scan type : MBAFF
Scan type, store method : Interleaved fields
Scan order : Top Field First
Bits/(Pixel*Frame) : 0.131
Stream size : 2.29 GiB (85%)
Color range : Limited
Color primaries : BT.709
Transfer characteristics : BT.709
Matrix coefficients : BT.709
Audio #1
ID : 2812 (0xAFC)
Menu ID : 812 (0x32C)
Format : MPEG Audio
Format version : Version 1
Format profile : Layer 2
Format settings : Joint stereo / Intensity Stereo + MS Stereo
Codec ID : 4
Duration : 48 min 20 s
Bit rate mode : Constant
Bit rate : 192 kb/s
Channel(s) : 2 channels
Sampling rate : 48.0 kHz
Frame rate : 41.667 FPS (1152 SPF)
Compression mode : Lossy
Delay relative to video : 74 ms
Stream size : 66.4 MiB (2%)
Language : std
Language, more info : Clean effects
Audio #2
ID : 3812 (0xEE4)
Menu ID : 812 (0x32C)
Format : MPEG Audio
Format version : Version 1
Format profile : Layer 2
Format settings : Joint stereo / Intensity Stereo + MS Stereo
Codec ID : 4
Duration : 48 min 20 s
Bit rate mode : Constant
Bit rate : 192 kb/s
Channel(s) : 2 channels
Sampling rate : 48.0 kHz
Frame rate : 41.667 FPS (1152 SPF)
Compression mode : Lossy
Delay relative to video : 74 ms
Stream size : 66.4 MiB (2%)
Language : std
Language, more info : Clean effects
Audio #3
ID : 4812 (0x12CC)
Menu ID : 812 (0x32C)
Format : AC-3
Format/Info : Audio Coding 3
Codec ID : 6
Duration : 48 min 20 s
Bit rate mode : Constant
Bit rate : 384 kb/s
Channel(s) : 6 channels
Channel positions : Front: L C R, Side: L R, LFE
Sampling rate : 48.0 kHz
Frame rate : 31.250 FPS (1536 SPF)
Bit depth : 16 bits
Compression mode : Lossy
Delay relative to video : 158 ms
Stream size : 133 MiB (5%)
Language : std
Language, more info : Clean effects
Service kind : Complete Main
Other #1
ID : 63 (0x3F)-100
Menu ID : 812 (0x32C)
Format : Teletext
Other #2
ID : 63 (0x3F)-888
Menu ID : 812 (0x32C)
Format : Teletext
Language, more info : Additional information page

Скриншоты





Создавать темы 20-Май-2018 15:17

[Профиль]  [ЛС] 

ВитВал

Стаж: 2 года 2 месяца

Сообщений: 6

Спасибо! Очень интересный док.сериал!

Создавать темы 04-Июн-2018 18:11

[Профиль]  [ЛС] 
Показать сообщения:    
Ответить на тему

Текущее время: 15-Ноя 22:39

Часовой пояс: UTC + 5



Вы не можете начинать темы
Вы не можете отвечать на сообщения
Вы не можете редактировать свои сообщения
Вы не можете удалять свои сообщения
Вы не можете голосовать в опросах
Вы не можете прикреплять файлы к сообщениям
Вы не можете скачивать файлы