[#11] Звездные войны: Эпизод 5 - Империя наносит ответный удар / Star Wars: Episode V - The Empire Strikes Back (Ирвин Кершнер) [1980 г., фантастика, фэнтези, боевик, приключения]

Ответить на тему
 

qweqwe ®

Стаж: 6 лет 9 месяцев

Сообщений: 52

Симпатии: 10

Звездные войны: Эпизод 5 - Империя наносит ответный удар / Star Wars: Episode V - The Empire Strikes Back
IMDB TOP 250: #11
Год выпуска: 1980
Страна: США
Жанр: фантастика, фэнтези, боевик, приключения
Продолжительность: 02:07:22
Режиссер: Ирвин Кершнер
В ролях: Марк Хэмилл, Харрисон Форд, Кэрри Фишер, Билли Ди Уильямс, Энтони Дэниелс, Дэвид Праус, Питер Мейхью, Кенни Бейкер, Фрэнк Оз, Алек Гиннесс
Описание: Борьба за Галактику обостряется в пятом эпизоде космической саги. Войска Императора начинают массированную атаку на повстанцев и их союзников. Хан Соло и принцесса Лейя укрываются в Заоблачном Городе, в котором их и захватывает Дарт Вейдер, в то время как Люк Скайуокер находится на таинственной планете джунглей Дагобар. Там Мастер — джедай Йода обучает молодого рыцаря навыкам обретения Силы. Люк даже не предполагает, как скоро ему придется воспользоваться знаниями старого Мастера: впереди битва с превосходящими силами Императора и смертельный поединок с Дартом Вейдером.

MediaInfo

Format : AVI
Format/Info : Audio Video Interleave
Format profile : OpenDML
File size : 2.05 GiB
Duration : 2h 7mn
Overall bit rate : 2 308 Kbps
Writing application : VirtualDubMod 1.5.4.1 (build 2178/release)
Writing library : VirtualDubMod build 2178/release
Video
ID : 0
Format : MPEG-4 Visual
Format profile : Advanced [email protected]
Format settings, BVOP : No
Format settings, QPel : No
Format settings, GMC : No warppoints
Format settings, Matrix : Custom
Codec ID : XVID
Codec ID/Hint : XviD
Duration : 2h 7mn
Bit rate : 1 851 Kbps
Width : 720 pixels
Height : 304 pixels
Display aspect ratio : 2.35:1
Frame rate : 23.976 fps
Color space : YUV
Chroma subsampling : 4:2:0
Bit depth : 8 bits
Scan type : Progressive
Compression mode : Lossy
Bits/(Pixel*Frame) : 0.353
Stream size : 1.65 GiB (80%)
Writing library : XviD 1.2.0.dev47 (UTC 2006-11-01)
Audio
ID : 1
Format : AC-3
Format/Info : Audio Coding 3
Mode extension : CM (complete main)
Format settings, Endianness : Big
Codec ID : 2000
Duration : 2h 7mn
Bit rate mode : Constant
Bit rate : 448 Kbps
Channel(s) : 6 channels
Channel positions : Front: L C R, Side: L R, LFE
Sampling rate : 48.0 KHz
Bit depth : 16 bits
Compression mode : Lossy
Stream size : 408 MiB (19%)
Alignment : Split accross interleaves
Interleave, duration : 96 ms (2.30 video frames)
Interleave, preload duration : 96 ms
Language : Russian

Скриншоты



Создавать темы 14-Июл-2012 00:14

[Профиль]  [ЛС] 

Tyrael7774

Стаж: 5 лет 2 месяца

Сообщений: 76

Симпатии: 1

Хороший Фильм!!! спасибо за релиз!)) ay

Создавать темы 20-Авг-2012 22:38

[Профиль]  [ЛС] 

239tuit

Стаж: 5 лет 2 месяца

Сообщений: 75

эпопея так эпопея

Создавать темы 25-Авг-2012 21:40

[Профиль]  [ЛС] 
Показать сообщения:    
Ответить на тему

Текущее время: 18-Ноя 04:20

Часовой пояс: UTC + 5



Вы не можете начинать темы
Вы не можете отвечать на сообщения
Вы не можете редактировать свои сообщения
Вы не можете удалять свои сообщения
Вы не можете голосовать в опросах
Вы не можете прикреплять файлы к сообщениям
Вы не можете скачивать файлы