Владение 18 (Святослав Подгаевский) (2013, ужасы, детектив, триллер, DVDRip) [Лицензия]

Ответить на тему
 

Suxrob89 ®

Стаж: 7 лет 2 месяца

Сообщений: 933

Симпатии: 564

-Владение 18- Год выхода: 2013
Жанр: ужасы, детектив, триллер
Выпущено: Россия / Люксор, Про100 Фильм, Вершина
Продолжительность: 01:28:46
Озвучивание: Оригинальное [Лицензия]-Режиссер: Святослав Подгаевский-В ролях: Ольга Приходько, Борис Полунин, Виктория Райкова, Мария Фомина, Дмитрий Ендальцев, Юрий Филатов, Сергей Холмогоров-Описание: Сиреневые Холмы, Владение 18 - адрес обычной многоэтажки на окраине города. Скоро здесь будет новый цветущий микрорайон, но пока вокруг царит девственное запустение. Сейчас цены на квартиры в этом доме так заманчиво низки... И продают их, оказывается, только по специальной благотворительной программе инвесторов! Когда ещё небогатым молодожёнам Свете и Максиму представится такой удивительный шанс переехать из крохотной коммуналки в собственную просторную квартиру?..- -Качество: DVDRip
Формат: AVI (XviD)
Видео: 1746 kb/s, 720x304
Аудио: AC3, 448 kb/s (6 ch)

Media info

E:\Vladenie.18.O.DVDRip.1400MB[tas-ix.net].avi
   General
      Complete name : E:\Vladenie.18.O.DVDRip.1400MB[tas-ix.net].avi
      Format : AVI
      Format/Info : Audio Video Interleave
      File size : 1.37 GiB
      Duration : 1h 28mn
      Overall bit rate : 2 204 Kbps
      Writing application : VirtualDubMod 1.5.10.3 | www.virtualdub-fr.org || (build 2550/release)
      Writing library : VirtualDubMod build 2550/release
   Video #0
      ID : 0
      Format : MPEG-4 Visual
      Format profile : Advanced [email protected]
      Format settings, BVOP : 2
      Format settings, QPel : No
      Format settings, GMC : No warppoints
      Format settings, Matrix : Default (MPEG)
      Codec ID : XVID
      Codec ID/Hint : XviD
      Duration : 1h 28mn
      Bit rate : 1 746 Kbps
      Width : 720 pixels
      Height : 304 pixels
      Display aspect ratio : 2.35:1
      Frame rate : 25.000 fps
      Color space : YUV
      Chroma subsampling : 4:2:0
      Bit depth : 8 bits
      Scan type : Progressive
      Compression mode : Lossy
      Bits/(Pixel*Frame) : 0.319
      Stream size : 1.08 GiB (79%)
      Writing library : XviD 73
   Audio #1
      ID : 1
      Format : AC-3
      Format/Info : Audio Coding 3
      Mode extension : CM (complete main)
      Format settings, Endianness : Big
      Codec ID : 2000
      Duration : 1h 28mn
      Bit rate mode : Constant
      Bit rate : 448 Kbps
      Channel(s) : 6 channels
      Channel positions : Front: L C R, Side: L R, LFE
      Sampling rate : 48.0 KHz
      Bit depth : 16 bits
      Compression mode : Lossy
      Stream size : 284 MiB (20%)
      Alignment : Split accross interleaves
      Interleave, duration : 40 ms (1.00 video frame)
      Interleave, preload duration : 500 ms

Скриншоты

Создавать темы 12-Апр-2014 07:50

[Профиль]  [ЛС] 

2BubbLe

Стаж: 3 года 10 месяцев

Сообщений: 167

Симпатии: 12

а ничего что у вас в файле надпись "[tas-ix.net]"

Создавать темы 12-Апр-2014 08:35

[Профиль]  [ЛС] 

X3JumperRaZ0R

Стаж: 5 лет 3 месяца

Сообщений: 177

Симпатии: 151

810972а ничего что у вас в файле надпись "[tas-ix.net]"
На сайт тас-икс.нет выложенно же...

Создавать темы 12-Апр-2014 09:20

[Профиль]  [ЛС] 

X3JumperRaZ0R

Стаж: 5 лет 3 месяца

Сообщений: 177

Симпатии: 151

Постер Прям как у пункта назначения 4...

Скриншот

Создавать темы 12-Апр-2014 09:28

[Профиль]  [ЛС] 

2BubbLe

Стаж: 3 года 10 месяцев

Сообщений: 167

Симпатии: 12

810988
810972а ничего что у вас в файле надпись "[tas-ix.net]"
На сайт тас-икс.нет выложенно же...
я ничего против не имею просто помню говорили модераторы что нельзя рекламировать или что то в этом роде

Создавать темы 12-Апр-2014 09:58

[Профиль]  [ЛС] 

2BubbLe

Стаж: 3 года 10 месяцев

Сообщений: 167

Симпатии: 12

Suxrob89, будьте добры проверьте https://tas-ix.net/viewtopic.php?t=86118&spmode=full#leechers

Создавать темы 12-Апр-2014 11:44

[Профиль]  [ЛС] 
Показать сообщения:    
Ответить на тему

Текущее время: 22-Окт 11:42

Часовой пояс: UTC + 5



Вы не можете начинать темы
Вы не можете отвечать на сообщения
Вы не можете редактировать свои сообщения
Вы не можете удалять свои сообщения
Вы не можете голосовать в опросах
Вы не можете прикреплять файлы к сообщениям
Вы не можете скачивать файлы