Кровавая леди Батори / Lady of Csejte (Андрей Конст) [2015г., триллер, WEB-DLRip 720p]

Ответить на тему
 

bbk ®

Стаж: 7 лет

Сообщений: 435

Симпатии: 479

Кровавая леди Батори / Lady of Csejte
Год выпуска: 2015
Страна: Россия, США / Enjoy Movies, Glacier Films
Жанр: триллер
Продолжительность: 01:47:04
Перевод: Не требуется (русский)
Режиссер: Андрей Конст
В ролях: Светлана Ходченкова, Павел Деревянко, Ада Кондееску, Хория Врачиу, Изабелль Аллен, Лукас Бонд, Лия Синчевич, Александра Пояна, Пауль Дьяконеску, Вирджиния Рогин
Описание: 17 век… Чейте (Чахтице), королевство Венгрия. В огромном замке, окруженном лесами и горами, живет прекрасная графиня Элизабета Батори. Она умна и красива, элегантна и учтива. И никто не знает, что в замке знаменитой красавицы творятся страшные вещи… Иногда легенды — не вымысел. Такова история самой влиятельной женщины своего времени и самой жестокой убийцы всех времен.
 
Качество: WEB-DLRip 720p-LQ
Формат: MKV
Видео кодек: MPEG-4 AVC/H.264
Аудио кодек: AC3 5.1
Видео: 4000 kb/s, 1280x496
Аудио: AC3, 448 kb/s (6 ch)

MI

General
    Unique ID : 246136243924117711634717883747751748827 (0xB92C1DC308ED1FFCA810196B9FCCE4DB)
    Complete name : Krovavay.Ledi.Batori.2015.O.WEB-DL.720p.mkv
    Format : Matroska
    Format version : Version 2
    File size : 3.33 GiB
    Duration : 1h 47mn
    Overall bit rate : 4 448 Kbps
    Movie name : Krovavay.Ledi.Batori.2015.O.WEB-DL.720p.ELEKTRI4KA.uniongang.tv [3imeMachi9e]
    Encoded date : UTC 2015-02-28 16:49:24
    Writing application : mkvmerge v5.0.1 ('Es ist Sommer') built on Nov  6 2011 16:23:40
    Writing library : libebml v1.2.2 + libmatroska v1.3.0
  Video #1
    ID : 1
    Format : AVC
    Format/Info : Advanced Video Codec
    Format profile : [email protected]
    Format settings, CABAC : Yes
    Format settings, ReFrames : 5 frames
    Codec ID : V_MPEG4/ISO/AVC
    Duration : 1h 47mn
    Bit rate : 4 000 Kbps
    Width : 1 280 pixels
    Height : 496 pixels
    Display aspect ratio : 2.581
    Frame rate mode : Constant
    Frame rate : 24.000 fps
    Color space : YUV
    Chroma subsampling : 4:2:0
    Bit depth : 8 bits
    Scan type : Progressive
    Bits/(Pixel*Frame) : 0.263
    Stream size : 2.92 GiB (88%)
    Title : Krovavay.Ledi.Batori.2015.O.WEB-DL.720p.ELEKTRI4KA.uniongang.tv [3imeMachi9e]
    Writing library : x264 core 125 r2208 d9d2288
    Encoding settings : cabac=1 / ref=5 / deblock=1:-1:0 / analyse=0x3:0x113 / me=umh / subme=7 / psy=1 / psy_rd=0.40:0.00 / mixed_ref=1 / me_range=16 / chroma_me=1 / trellis=2 / 8x8dct=1 / cqm=0 / deadzone=21,11 / fast_pskip=0 / chroma_qp_offset=-2 / threads=12 / lookahead_threads=2 / sliced_threads=0 / nr=0 / decimate=1 / interlaced=0 / bluray_compat=0 / constrained_intra=0 / bframes=5 / b_pyramid=2 / b_adapt=2 / b_bias=0 / direct=3 / weightb=1 / open_gop=0 / weightp=2 / keyint=250 / keyint_min=23 / scenecut=40 / intra_refresh=0 / rc_lookahead=60 / rc=2pass / mbtree=1 / bitrate=4000 / ratetol=1.0 / qcomp=0.70 / qpmin=0 / qpmax=69 / qpstep=4 / cplxblur=20.0 / qblur=0.5 / vbv_maxrate=17500 / vbv_bufsize=14000 / nal_hrd=none / ip_ratio=1.40 / aq=1:0.60
    Language : English
    Default : Yes
    Forced : No
  Audio #2
    ID : 2
    Format : AC-3
    Format/Info : Audio Coding 3
    Mode extension : CM (complete main)
    Format settings, Endianness : Big
    Codec ID : A_AC3
    Duration : 1h 47mn
    Bit rate mode : Constant
    Bit rate : 448 Kbps
    Channel(s) : 6 channels
    Channel positions : Front: L C R, Side: L R, LFE
    Sampling rate : 48.0 KHz
    Bit depth : 16 bits
    Compression mode : Lossy
    Stream size : 343 MiB (10%)
    Title : Krovavay.Ledi.Batori.2015.O.WEB-DL.720p.ELEKTRI4KA.uniongang.tv [3imeMachi9e]
    Language : Russian
    Default : Yes
    Forced : No

Скриншоты

Создавать темы 01-Мар-2015 08:41

[Профиль]  [ЛС] 

Den27778

Стаж: 3 года 11 месяцев

Сообщений: 32

скорости дайте

Создавать темы 27-Мар-2015 22:09

[Профиль]  [ЛС] 
Показать сообщения:    
Ответить на тему

Текущее время: 15-Дек 02:03

Часовой пояс: UTC + 5



Вы не можете начинать темы
Вы не можете отвечать на сообщения
Вы не можете редактировать свои сообщения
Вы не можете удалять свои сообщения
Вы не можете голосовать в опросах
Вы не можете прикреплять файлы к сообщениям
Вы не можете скачивать файлы