Газгольдер: Фильм - (Иван Курский) - [2014 г., Россия, Криминал, музыкальный экшн-комикс, HDRip]

Ответить на тему
 

KHRuchev ®

Стаж: 2 года 6 месяцев

Сообщений: 41

Симпатии: 110

Газгольдер: Фильм-- Год выпуска: 2014
Страна: Россия
Жанр: Криминал
Продолжительность: 02:02:43
Перевод: Перевод не требуется
Режиссер: Иван Курский
Сценарий: Иван Курский
Продюсер: Иван Курский, Елена Быкова, Вадик QП
Оператор: Алексей Куприянов, Игорь Гринякин
Композитор: Баста
Художник: Юлия Феофанова, Екатерина Кузнецова, Ярослав Митурич
Монтаж: Азат Григорян, Игорь Отдельнов, Иван Курский
В ролях: Баста, Вадик QП, Олег Груз, Виталий Буслаев, Григорий Зельтсер, Михаил Скачков, Екатерина Бестужева, Юрий Рейнеке, Гуф, Айза Долматова
Описание: У Басты и его друзей произошел серьезный конфликт с могущественным кланом силовиков. Ребятам предстоит найти выход из сложившейся ситуации, включив всю мощь творческой энергии.--Сбор в России-$1 782 801 сборы
Зрители-282.4 тыс.
Премьера (мир)-24 апреля 2014
Премьера (РФ)-24 апреля 2014, «DreamTeam»
Возраст-зрителям, достигшим +18 лет--Качество: HDRip
Формат: MKV
Видео кодек: AVC
Аудио кодек: AC3
Видео: MPEG4 Video (H264) 1280x536 1 600 Kbps 25fps
Аудио: Dolby AC3 192 Kbps 44100Hz stereo

MI

Format : Matroska
Format version : Version 2
File size : 1.54 GiB
Duration : 2h 2mn
Overall bit rate : 1 794 Kbps
Encoded date : UTC 2014-12-10 14:36:33
Writing application : mkvmerge v5.6.0 ('Kenya Kane') built on Jun 29 2012 15:01:44
Writing library : libebml v1.2.3 + libmatroska v1.3.0
Video
ID : 1
Format : AVC
Format/Info : Advanced Video Codec
Format profile : [email protected]
Format settings, CABAC : Yes
Format settings, ReFrames : 4 frames
Codec ID : V_MPEG4/ISO/AVC
Duration : 2h 2mn
Bit rate : 1 600 Kbps
Width : 1 280 pixels
Height : 536 pixels
Display aspect ratio : 2.40:1
Frame rate : 25.000 fps
Color space : YUV
Chroma subsampling : 4:2:0
Bit depth : 8 bits
Scan type : Progressive
Bits/(Pixel*Frame) : 0.093
Stream size : 1.34 GiB (87%)
Writing library : x264 core 125 r2200 999b753
Encoding settings : cabac=1 / ref=3 / deblock=1:0:0 / analyse=0x3:0x113 / me=hex / subme=7 / psy=1 / psy_rd=1.00:0.00 / mixed_ref=1 / me_range=16 / chroma_me=1 / trellis=2 / 8x8dct=1 / cqm=0 / deadzone=21,11 / fast_pskip=1 / chroma_qp_offset=-2 / threads=12 / lookahead_threads=2 / sliced_threads=0 / nr=0 / decimate=1 / interlaced=0 / bluray_compat=0 / constrained_intra=0 / bframes=3 / b_pyramid=2 / b_adapt=1 / b_bias=0 / direct=3 / weightb=1 / open_gop=0 / weightp=2 / keyint=250 / keyint_min=25 / scenecut=40 / intra_refresh=0 / rc_lookahead=40 / rc=2pass / mbtree=1 / bitrate=1600 / ratetol=1.0 / qcomp=0.60 / qpmin=0 / qpmax=69 / qpstep=4 / cplxblur=20.0 / qblur=0.5 / ip_ratio=1.40 / aq=1:1.00
Default : Yes
Forced : No
Audio
ID : 2
Format : AC-3
Format/Info : Audio Coding 3
Mode extension : CM (complete main)
Codec ID : A_AC3
Duration : 2h 2mn
Bit rate mode : Constant
Bit rate : 192 Kbps
Channel(s) : 2 channels
Channel positions : Front: L R
Sampling rate : 44.1 KHz
Bit depth : 16 bits
Compression mode : Lossy
Stream size : 169 MiB (11%)
Default : Yes
Forced : No

Cкриншоты

Создавать темы 05-Апр-2015 12:05

[Профиль]  [ЛС] 

Топик был перенесен из форума Фильмы за 2014 в форум HD-AVC
Mixer City

Создавать темы 05-Апр-2015 14:02

 
Показать сообщения:    
Ответить на тему

Текущее время: 17-Окт 11:04

Часовой пояс: UTC + 5



Вы не можете начинать темы
Вы не можете отвечать на сообщения
Вы не можете редактировать свои сообщения
Вы не можете удалять свои сообщения
Вы не можете голосовать в опросах
Вы не можете прикреплять файлы к сообщениям
Вы не можете скачивать файлы