Несломленный / Unbroken (Анджелина Джоли) [2014, США, драма, военный, биография, спорт, WEB-DLRip] [iTunes]

Ответить на тему
 

bbk ®

Стаж: 6 лет 9 месяцев

Сообщений: 435

Симпатии: 479

Несломленный / Unbroken
Страна: США
Жанр: драма, военный, биография, спорт
Год выпуска: 2014
Продолжительность: 02:17:25
Перевод: Профессиональный (дублированный) [iTunes]
Cубтитры: нет
Режиссер: Анджелина Джоли
В ролях: Джек О'Коннелл, Донал Глисон, Такамаса Исихара, Гаррет Хедлунд, Финн Уиттрок, Мэттью Крокер, Джай Кортни, Маддалена Искьяле, Винченцо Амато, Джон Магаро
Описание: Фильм основан на реальных событиях и рассказывает об американце Луи Замперини, который принимал участие в Олимпийских играх 1936 года в Берлине. Он не одержал победу в финальном забеге, но, по какой-то причине, снискал расположение Гитлера, который пригласил его к себе в ложу. Предполагалось, что Замперини примет участие и в следующих Олимпийских играх, но из-за начала Второй мировой войны он был вынужден отправиться на фронт. Его самолет был сбит над Японией, а сам Замперини попал в плен к японцам, где пережил многочисленные пытки. Домой он вернулся уже лишь после окончания войны.
Качество видео: WEB-DLRip
Формат видео: AVI
Видео: 720х304 (2.37:1), 1743 Kb/s
Аудио: RUS, AC3, 384 Kb/s (6 ch)
Аудио 2: ENG, AC3, 384 Kb/s (6 ch)

MediaInfo

General
Complete name : Unbroken.2014.D.HDRip.2100MB-C!v.avi
Format : AVI
Format/Info : Audio Video Interleave
File size : 2.05 GiB
Duration : 2h 17mn
Overall bit rate : 2 137 Kbps
Writing application : VirtualDubMod 1.5.10.2 (build 2540/release)
Writing library : VirtualDubMod build 2540/release
Video #0
ID : 0
Format : MPEG-4 Visual
Format profile : Advanced [email protected]
Format settings, BVOP : 2
Format settings, QPel : No
Format settings, GMC : No warppoints
Format settings, Matrix : Default (MPEG)
Codec ID : XVID
Codec ID/Hint : XviD
Duration : 2h 17mn
Bit rate : 1 274 Kbps
Width : 720 pixels
Height : 304 pixels
Display aspect ratio : 2.35:1
Frame rate : 23.976 fps
Color space : YUV
Chroma subsampling : 4:2:0
Bit depth : 8 bits
Scan type : Progressive
Compression mode : Lossy
Bits/(Pixel*Frame) : 0.243
Stream size : 1.22 GiB (60%)
Writing library : XviD 1.2.1 (UTC 2008-12-04)
Audio #1
ID : 1
Format : AC-3
Format/Info : Audio Coding 3
Mode extension : CM (complete main)
Format settings, Endianness : Big
Codec ID : 2000
Duration : 2h 17mn
Bit rate mode : Constant
Bit rate : 384 Kbps
Channel(s) : 6 channels
Channel positions : Front: L C R, Side: L R, LFE
Sampling rate : 48.0 KHz
Bit depth : 16 bits
Compression mode : Lossy
Stream size : 377 MiB (18%)
Alignment : Split accross interleaves
Audio #2
ID : 2
Format : AC-3
Format/Info : Audio Coding 3
Mode extension : CM (complete main)
Format settings, Endianness : Big
Codec ID : 2000
Duration : 2h 17mn
Bit rate mode : Constant
Bit rate : 384 Kbps
Channel(s) : 6 channels
Channel positions : Front: L C R, Side: L R, LFE
Sampling rate : 48.0 KHz
Bit depth : 16 bits
Compression mode : Lossy
Stream size : 377 MiB (18%)
Alignment : Split accross interleaves

Скриншот c названием фильма

Скриншоты



Последний раз редактировалось: bbk (2015-03-12 12:04), всего редактировалось 2 раз(а)

Создавать темы 12-Мар-2015 07:07

[Профиль]  [ЛС] 

Tricks

Стаж: 4 года 9 месяцев

Сообщений: 602

Симпатии: 21

Фильм офигенный спасибо автору)
не перематывая смотрел и плакал ak ak

Создавать темы 15-Мар-2015 12:04

[Профиль]  [ЛС] 

Skillfull

Стаж: 5 лет 3 месяца

Сообщений: 109

Симпатии: 3

Фильм ПОТРЯСАЮЩИЙ.

Создавать темы 30-Май-2015 12:33

[Профиль]  [ЛС] 
Показать сообщения:    
Ответить на тему

Текущее время: 24-Авг 13:53

Часовой пояс: UTC + 5



Вы не можете начинать темы
Вы не можете отвечать на сообщения
Вы не можете редактировать свои сообщения
Вы не можете удалять свои сообщения
Вы не можете голосовать в опросах
Вы не можете прикреплять файлы к сообщениям
Вы не можете скачивать файлы