Не валяй дурака (Валерий Чиков) [1997, Россия, Комедия, DVDRip]

Ответить на тему
 

фазилов ®

Стаж: 3 года 6 месяцев

Сообщений: 310

Симпатии: 344

НЕ ВАЛЯЙ ДУРАКА
Год выпуска: 1997
Страна: Россия
Жанр: Комедия
Продолжительность: 01:39:19
Режиссер: Валерий Чиков
В ролях: Михаил Евдокимов, Лев Дуров, Кевин Мак-Гир, Остин Т. Смот, Расселл Ла Дью, Скотт Каннингэм, Юрий Оленников, Валерий Золотухин, Татьяна Кравченко, Ольга Остроумова, Анастасия Заволокина, Сергей Агапитов
Описание: "Сентиментальная пародия" — так назвали авторы эту замечательную комедию, в которой много смешного, грустного, трогательного. Американцы решили убедиться, что в районе архангельской деревни действительно нашли месторождение алмазов, и послали туда подводную лодку под командованием негра-ветерана, сопровождавшего конвои союзников во время 2-й мировой войны. В качестве отвлекающего маневра к берегу была подброшена бочка со спиртом (200 литров), выловленная местным кузнецом Филимоном (Евдокимов). По этому случаю устроили народное гулянье, к которому против своей воли постепенно были подключены и все американские подводники....

Доп. информация: Роли дублировал: Александр Рыжков
Продюсеры: Эйви Шнейдман, Алексей Шачнев
Источник: http://rutracker.org/forum/viewtopic.php?t=2024824

Качество: DVDRip
Формат: AVI
Видео кодек: DivX
Аудио кодек: MP3
Видео: DivX 5 580x432 25.00fps, 962Kbps
Аудио: MP3 48000Hz stereo 128Kbps

Media-Info

General
Complete name : D:\Мои релизы\Не валяй дурака_(1997).avi
Format : AVI
Format/Info : Audio Video Interleave
File size : 700 MiB
Duration : 1h 39mn
Overall bit rate : 985 Kbps
Writing application : VirtualDubModRus 1.5.10.2 (build 2542/release)
Writing library : VirtualDubMod build 2542/release
Video
ID : 0
Format : MPEG-4 Visual
Format settings, BVOP : No
Format settings, QPel : No
Format settings, GMC : No warppoints
Format settings, Matrix : Default (H.263)
Codec ID : DX50
Codec ID/Hint : DivX 5
Duration : 1h 39mn
Bit rate : 848 Kbps
Width : 580 pixels
Height : 432 pixels
Display aspect ratio : 4:3
Original display aspect ratio : 4:3
Frame rate : 25.000 fps
Color space : YUV
Chroma subsampling : 4:2:0
Bit depth : 8 bits
Scan type : Progressive
Compression mode : Lossy
Bits/(Pixel*Frame) : 0.135
Stream size : 602 MiB (86%)
Writing library : DivX 5.2.1 (WaffleDay) (UTC 2004-09-08)
Audio
ID : 1
Format : MPEG Audio
Format version : Version 1
Format profile : Layer 3
Mode : Joint stereo
Mode extension : MS Stereo
Codec ID : 55
Codec ID/Hint : MP3
Duration : 1h 39mn
Bit rate mode : Constant
Bit rate : 128 Kbps
Channel(s) : 2 channels
Sampling rate : 48.0 KHz
Compression mode : Lossy
Stream size : 90.9 MiB (13%)
Alignment : Aligned on interleaves
Interleave, duration : 40 ms (1.00 video frame)
Interleave, preload duration : 504 ms
Writing library : LAME3.97b
Encoding settings : -m j -V 4 -q 2 -lowpass 17 -b 128

Скриншоты



Последний раз редактировалось: фазилов (2015-06-05 19:59), всего редактировалось 1 раз

Создавать темы 05-Июн-2015 12:22

[Профиль]  [ЛС] 
Показать сообщения:    
Ответить на тему

Текущее время: 18-Авг 04:31

Часовой пояс: UTC + 5



Вы не можете начинать темы
Вы не можете отвечать на сообщения
Вы не можете редактировать свои сообщения
Вы не можете удалять свои сообщения
Вы не можете голосовать в опросах
Вы не можете прикреплять файлы к сообщениям
Вы не можете скачивать файлы