Приличные люди (Клим Поплавский) [2015, комедия, WEB-DL, AVC]

Ответить на тему
 

Cheburashka ®

Стаж: 5 лет 8 месяцев

Сообщений: 54

Симпатии: 41

Приличные люди
«Во все тяжкие»
Жанр: комедия
Год выпуска: 2015
Продолжительность: 01:26:50-Режиссёр: Клим Поплавский-В ролях: Наталия Медведева, Сергей Шнуров, Евгений Сморигин, Григорий Цветков, Артём Башенин, Алексей Гришин, Игорь Хрипунов, Андрей Федорцов, Константин Мурзенко, Анна Уколова-Описание: Что делать, если в вашем доме поселился родственник, недавно освободившийся из тюрьмы? И сделал жизнь вашей семьи невыносимой. А вы с женой случайно его убили. И соседский мальчик видел, как вы пытались закопать труп на заднем дворе. А инспектор ДПС обратил внимание на вашего неразговорчивого родственника в машине. Не очень представляя себе жизнь за решеткой, вы, наверное, должны избавиться от трупа… и, видимо, от маленького свидетеля … и полицейскому вы тоже как-то не должны позволить рассказать, что у вас в машине не совсем живой человек и чужой ребенок…- -Качество видео: WEB-DL
Формат видео: MKV
Видео: MPEG4 Video (H264) 1920x1034 25fps AVC at 4883 Кбит/сек
Аудио: Dolby AC3 48000Hz 6ch 384 Кбит/сек

MediaInfo

General
Unique ID : 195014875252166080403638993553987202713 (0x92B67FB05E27040788D185561197EE99)
Complete name : F:\Кино\Кино_2015\Prilichnye.Ludi.2015.WEB-DL.1080p.mkv
Format : Matroska
Format version : Version 4 / Version 2
File size : 3.26 GiB
Duration : 1h 26mn
Overall bit rate : 5 374 Kbps
Encoded date : UTC 2015-05-29 19:40:27
Writing application : mkvmerge v7.6.0 ('Garden of Dreams') 32bit built on Feb 8 2015 12:51:39
Writing library : libebml v1.3.1 + libmatroska v1.4.2
DURATION : 01:26:49.760000000
NUMBER_OF_FRAMES : 162805
NUMBER_OF_BYTES : 250068480
_STATISTICS_WRITING_APP : mkvmerge v7.6.0 ('Garden of Dreams') 32bit built on Feb 8 2015 12:51:39
_STATISTICS_WRITING_DATE_UTC : 2015-05-29 19:40:27
_STATISTICS_TAGS : BPS DURATION NUMBER_OF_FRAMES NUMBER_OF_BYTES
Video
ID : 1
Format : AVC
Format/Info : Advanced Video Codec
Format profile : [email protected]
Format settings, CABAC : Yes
Format settings, ReFrames : 4 frames
Codec ID : V_MPEG4/ISO/AVC
Duration : 1h 26mn
Bit rate : 4 883 Kbps
Width : 1 920 pixels
Height : 1 034 pixels
Display aspect ratio : 1.85:1
Frame rate mode : Constant
Frame rate : 25.000 fps
Color space : YUV
Chroma subsampling : 4:2:0
Bit depth : 8 bits
Scan type : Progressive
Bits/(Pixel*Frame) : 0.098
Stream size : 2.96 GiB (91%)
Language : English
Default : Yes
Forced : No
Color primaries : BT.709
Transfer characteristics : BT.709
Matrix coefficients : BT.709
Audio
ID : 2
Format : AC-3
Format/Info : Audio Coding 3
Mode extension : CM (complete main)
Format settings, Endianness : Big
Codec ID : A_AC3
Duration : 1h 26mn
Bit rate mode : Constant
Bit rate : 384 Kbps
Channel(s) : 6 channels
Channel positions : Front: L C R, Side: L R, LFE
Sampling rate : 48.0 KHz
Bit depth : 16 bits
Compression mode : Lossy
Stream size : 238 MiB (7%)
Language : Russian
Default : Yes
Forced : No
Menu
00:00:00.000 : en:1
00:04:05.000 : en:2
00:12:04.000 : en:3
00:18:12.000 : en:4
00:23:15.000 : en:5
00:29:20.000 : en:6
00:34:21.000 : en:7
00:40:05.000 : en:8
00:46:35.000 : en:9
00:51:48.000 : en:10
00:57:29.000 : en:11
01:04:16.000 : en:12
01:09:17.000 : en:13
01:15:58.000 : en:14
01:20:00.000 : en:15
01:24:34.000 : en:16

Скриншот c названием фильма

Скриншоты

Создавать темы 10-Июн-2015 00:00

[Профиль]  [ЛС] 

Сергей74

Стаж: 2 года 6 месяцев

Сообщений: 211

Симпатии: 293

Хотите качать быстрее, включите ТЕРЕДО читайте здесь -> https://tas-ix.net/viewtopic.php?p=715602#715602
или если первое не сработает здесь -> Решение проблемы с NAT (Teredo IPv6) или скачать Teredo.zip
У кого не получалось и было Тип: disabled
рекомендую скачать и установить фикс http://download.microsoft.com/download/2/E/C/2ECDDF...ftFixit50440.msi (1.1 мег) всего или скачать ниже прикрепил MicrosoftFixit50440
Подходит для:
Windows 7 Enterprise, Windows 7 Home Basic, Windows 7 Home Premium, Windows 7 Professional, Windows 7 Ultimate, Windows 7 Starter, Windows Server 2008 R2 Datacenter, Windows Server 2008 R2 Enterprise, Windows Server 2008 R2 Standard, Windows Vista Enterprise, Windows Vista Enterprise 64-bit Edition, Windows Vista Home Basic 64-bit Edition, Windows Vista Home Premium 64-bit Edition, Windows Vista Ultimate 64-bit Edition, Windows Vista Business, Windows Vista Business 64-bit Edition, Windows Vista Home Basic, Windows Vista Home Premium, Windows Vista Starter, Windows Vista Ultimate, Windows Server 2008 Datacenter, Windows Server 2008 Enterprise, Windows Server 2008 Standard, Windows Server 2012 R2 Standard, Windows Server 2012 Standard, Windows Server 2012 Datacenter, Windows Server 2012 Essentials, Windows Server 2012 R2 Datacenter, Windows Server 2012 R2 Essentials, Windows Server 2012 R2 for Embedded Systems, Windows Server 2012 R2 Foundation
и только затем переходим к первой сссылке
Должно стать так

Создавать темы 10-Июн-2015 11:45

[Профиль]  [ЛС] 
Показать сообщения:    
Ответить на тему

Текущее время: 19-Окт 08:44

Часовой пояс: UTC + 5



Вы не можете начинать темы
Вы не можете отвечать на сообщения
Вы не можете редактировать свои сообщения
Вы не можете удалять свои сообщения
Вы не можете голосовать в опросах
Вы не можете прикреплять файлы к сообщениям
Вы не можете скачивать файлы