Дабл трабл WEBRip (Эдуард Оганесян) [2015, комедия, WEBRip]

Ответить на тему
 

Сергей74 ®

Стаж: 2 года 8 месяцев

Сообщений: 211

Симпатии: 293

Дабл трабл WEBRip
Жанр: комедия
Год выпуска: 2015
Продолжительность: 01:20:21
Режиссёр: Эдуард Оганесян
В ролях: Даниил Белых, Екатерина Варнава, Лера Куликова, Даниил Кузнец, Слава, Сергей Мезенцев, Владимир Тишко, Юлия Морозова, Лена Горностаева
Описание: Роман ведет холостяцкий образ жизни и свое шоу на радио. Как заправский психолог он раздает советы слушателям, приправляя их колкими шутками. Пока одна из них не оборачивается против него самого. На вопрос 20-летней Алены, ехать ли ей к отцу, Роман отвечает «Конечно! Я был бы рад». Он не знает, что в эфире — плод его случайной связи, а он сам в одночасье стал не только отцом, но и дедушкой Алениного сына. Новоиспеченные родственники погружают в ад беззаботного Романа и его девушку Сашу, светскую львицу и владелицу радиостанции. Не меньшее разочарование ждет и Алену. Только чудо сможет сделать их четверых одной семьей…
Доп. информация: Дата мировой премьеры: 4 июня 2015
Дата премьеры в России: 28 мая 2015, «Bazelevs Distribution», «Двадцатый Век Фокс СНГ»

Качество видео: WEBRip
Формат видео: AVI
Видео: Xvid, 720х304, ~2042 Кбит/сек
Аудио: AC3, 2 ch, 384 Кбит/сек, CBR

MediaInfo

Общее
Полное имя : C:Торренты\Дабл трабл.2015.O.WEBRip.avi
Формат : AVI
Формат/Информация : Audio Video Interleave
Размер файла : 1,37 Гбайт
Продолжительность : 1 ч. 20 м.
Общий поток : 2436 Кбит/сек
Программа кодирования : VirtualDubMod 1.5.10.2 (build 2540/release)
Библиотека кодирования : VirtualDubMod build 2540/release
Видео
Идентификатор : 0
Формат : MPEG-4 Visual
Профиль формата : Advanced [email protected]
Параметр BVOP формата : 2
Параметр QPel формата : Нет
Параметр GMC формата : Без точки перехода
Параметр матрицы формата : Default (MPEG)
Идентификатор кодека : XVID
Идентификатор кодека/Подсказка : XviD
Продолжительность : 1 ч. 20 м.
Битрейт : 2042 Кбит/сек
Ширина : 720 пикселей
Высота : 304 пикселя
Соотношение сторон : 2,35:1
Частота кадров : 25,000 кадров/сек
Цветовое пространство : YUV
Субдискретизация насыщенности : 4:2:0
Битовая глубина : 8 бит
Тип развёртки : Прогрессивная
Метод сжатия : С потерями
Бит/(Пиксели*Кадры) : 0.373
Размер потока : 1,15 Гбайт (84%)
Библиотека кодирования : XviD 1.2.1 (UTC 2008-12-04)
Аудио
Идентификатор : 1
Формат : AC-3
Формат/Информация : Audio Coding 3
Расширение режима : CM (complete main)
Параметр Endianness формата : Big
Идентификатор кодека : 2000
Продолжительность : 1 ч. 20 м.
Вид битрейта : Постоянный
Битрейт : 384 Кбит/сек
Каналы : 2 канала
Расположение каналов : Front: L R
Частота : 48,0 КГц
Метод сжатия : С потерями
Размер потока : 221 Мбайт (16%)
Выравнивание : Разделение по промежуткам
Продолжительность промежутка : 40 мс. (1,00 видеокадр)
Время предзагрузки промежутка : 500 мс.

Скриншот c названием фильма

Скриншоты



Создавать темы 19-Июн-2015 21:12

[Профиль]  [ЛС] 

Сергей74 ®

Стаж: 2 года 8 месяцев

Сообщений: 211

Симпатии: 293

aa


Последний раз редактировалось: Сергей74 (2015-07-20 12:55), всего редактировалось 1 раз

Создавать темы 19-Июн-2015 21:38

[Профиль]  [ЛС] 

Sunnat1999

Стаж: 4 года 9 месяцев

Сообщений: 756

Симпатии: 416

Хороший фильм. Советую посмотреть.

Создавать темы 21-Июн-2015 14:19

[Профиль]  [ЛС] 

mars751

Стаж: 5 лет 8 месяцев

Сообщений: 227

Симпатии: 113

пацан прикольный))) особенно мне понравилось в этом моменте

Создавать темы 22-Июн-2015 07:27

[Профиль]  [ЛС] 
Показать сообщения:    
Ответить на тему

Текущее время: 18-Дек 23:41

Часовой пояс: UTC + 5



Вы не можете начинать темы
Вы не можете отвечать на сообщения
Вы не можете редактировать свои сообщения
Вы не можете удалять свои сообщения
Вы не можете голосовать в опросах
Вы не можете прикреплять файлы к сообщениям
Вы не можете скачивать файлы