Не послать ли нам... гонца? (Валерий Чиков) [1998, Сентиментальная комедия, DVDRip]

Ответить на тему
 

Сергей74 ®

Стаж: 2 года 8 месяцев

Сообщений: 211

Симпатии: 293

Не послать ли нам... гонца?
Жанр: Сентиментальная комедия
Год выпуска: 1998
Продолжительность: 01:39:05
Режиссёр: Валерий Чиков
В ролях: Михаил Евдокимов, Лев Дуров, Ирина Розанова, Любовь Соколова, Саша Комков, Александр Казаков, Александр Кузьмичев, Магомед Льянов, Николай Руманов, Гаджи Исмайлов, Николай Трофимов, Иван Бортник, Ольга Будина, Юрий Дуванов и др.
Описание: Разорившийся фермер Иван, устав от российской неразберихи, однажды решительно садится в свой маленький «Запорожец» и едет к президенту в Москву поговорить о трудной крестьянской жизни, а заодно и выяснить, когда же все это безобразие закончится. По дороге к нему присоединяется сумасшедший человек Яков. Вдвоем они переживут ряд дорожных приключений и в конце концов попадут в столицу…
Качество видео: DVDRip
Формат видео: AVI
Видео: 720x544 (1.32:1), 25 fps, DivX Codec 5.x or 6.x ~1776 kbps avg, 0.18 bit/pixel
Аудио: 48 kHz, AC3 Dolby Digital, 2/0 (L,R) ch, ~192.00 kbps avg
 

MediaInfo

General
Complete name : D:\ФИЛЬМЫ\Ne.poslat.li.nam.gonca.1998.Divx.DVDRip.Kinozal.TV.avi
Format : AVI
Format/Info : Audio Video Interleave
File size : 1.37 GiB
Duration : 1h 39mn
Overall bit rate : 1 975 Kbps
Writing application : VirtualDubMod 1.5.4.1 (build 2178/release)
Writing library : VirtualDubMod build 2178/release
Video
ID : 0
Format : MPEG-4 Visual
Format settings, BVOP : 1
Format settings, QPel : No
Format settings, GMC : No warppoints
Format settings, Matrix : Default (H.263)
Muxing mode : Packed bitstream
Codec ID : DX50
Codec ID/Hint : DivX 5
Duration : 1h 39mn
Bit rate : 1 776 Kbps
Width : 720 pixels
Height : 544 pixels
Display aspect ratio : 4:3
Frame rate : 25.000 fps
Color space : YUV
Chroma subsampling : 4:2:0
Bit depth : 8 bits
Scan type : Progressive
Compression mode : Lossy
Bits/(Pixel*Frame) : 0.181
Stream size : 1.23 GiB (90%)
Writing library : DivX 6.7.0 (UTC 2007-09-20)
Audio
ID : 1
Format : AC-3
Format/Info : Audio Coding 3
Mode extension : CM (complete main)
Format settings, Endianness : Big
Codec ID : 2000
Duration : 1h 39mn
Bit rate mode : Constant
Bit rate : 192 Kbps
Channel(s) : 2 channels
Channel positions : Front: L R
Sampling rate : 48.0 KHz
Compression mode : Lossy
Stream size : 136 MiB (10%)
Alignment : Split accross interleaves
Interleave, duration : 96 ms (2.40 video frames)
Interleave, preload duratio : 96 ms
Language : Russian

Скриншот c названием фильма

Скриншоты






Создавать темы 16-Авг-2015 00:48

[Профиль]  [ЛС] 

Сергей74 ®

Стаж: 2 года 8 месяцев

Сообщений: 211

Симпатии: 293

aa

Создавать темы 16-Авг-2015 00:49

[Профиль]  [ЛС] 
Показать сообщения:    
Ответить на тему

Текущее время: 15-Дек 00:12

Часовой пояс: UTC + 5



Вы не можете начинать темы
Вы не можете отвечать на сообщения
Вы не можете редактировать свои сообщения
Вы не можете удалять свои сообщения
Вы не можете голосовать в опросах
Вы не можете прикреплять файлы к сообщениям
Вы не можете скачивать файлы