Кавказская пленница (Максим Воронков) [2014, комедия, WEB-DLRip] iTunes

Ответить на тему
 

atgerkin ®

Стаж: 6 лет 10 месяцев

Сообщений: 247

Симпатии: 78

-Кавказская пленница«История повторяется!»-Жанр: комедия
Год выпуска: 2014
Продолжительность: 1:35:34-Режиссёр: Максим Воронков-В ролях: Дмитрий Шаракоис, Настя Задорожная, Геннадий Хазанов, Арарат Кещян, Семён Стругачев, Сергей Степанченко, Николай Добрынин, Михаил Ефремов, Юлий Гусман, Лариса Удовиченко-Описание: Журналист Шурик приезжает на Кавказ, чтобы снять репортаж о местных красотах и традициях, и попадает в Горск, вотчину местного мэра города Георгия Гаджиевича Саахова. Тот, поддерживая моду, заданную губернатором, задумал жениться на молоденькой красавице, спортсменке и даже экстремалке Нине, которая так понравилась Шурику. Используя незадачливого журналиста, Саахов и его подручные похищают Нину. Но, поняв, что его разыграли, Шурик бросается спасать любимую девушку...-Доп. информация:
 
-Качество видео: WEB-DLRip
Формат видео: AVI-Видео: XviD,1654 kb/s, 720x304
Аудио: AC3, 384 kb/s (6 ch)

MediaInfo

Общее
Полное имя : E:\Move4\Plenn1tsa.2014.O.WEB-DLRip.1400Mb.avi
Формат : AVI
Формат/Информация : Audio Video Interleave
Размер файла : 1,37 Гбайт
Продолжительность : 1 ч. 35 м.
Общий поток : 2048 Кбит/сек
Программа кодирования : VirtualDubMod 1.5.10.2 (build 2540/release)
Библиотека кодирования : VirtualDubMod build 2540/release
Видео
Идентификатор : 0
Формат : MPEG-4 Visual
Профиль формата : Advanced [email protected]
Параметр BVOP формата : 2
Параметр QPel формата : Нет
Параметр GMC формата : Без точки перехода
Параметр матрицы формата : Default (MPEG)
Идентификатор кодека : XVID
Идентификатор кодека/Подсказка : XviD
Продолжительность : 1 ч. 35 м.
Битрейт : 1654 Кбит/сек
Ширина : 720 пикселей
Высота : 304 пикселя
Соотношение сторон : 2,35:1
Частота кадров : 24,000 кадра/сек
Цветовое пространство : YUV
Субдискретизация насыщенности : 4:2:0
Битовая глубина : 8 бит
Тип развёртки : Прогрессивная
Метод сжатия : С потерями
Бит/(Пиксели*Кадры) : 0.315
Размер потока : 1,10 Гбайт (81%)
Библиотека кодирования : XviD 1.2.1 (UTC 2008-12-04)
Аудио
Идентификатор : 1
Формат : AC-3
Формат/Информация : Audio Coding 3
Расширение режима : CM (complete main)
Параметр Endianness формата : Big
Идентификатор кодека : 2000
Продолжительность : 1 ч. 35 м.
Вид битрейта : Постоянный
Битрейт : 384 Кбит/сек
Каналы : 6 каналов
Расположение каналов : Front: L C R, Side: L R, LFE
Частота : 48,0 КГц
Битовая глубина : 16 бит
Метод сжатия : С потерями
Размер потока : 263 Мбайт (19%)
Выравнивание : Разделение по промежуткам
Продолжительность промежутка : 42 мс. (1,00 видеокадр)
Время предзагрузки промежутка : 500 мс.

Скриншот c названием фильма

Скриншоты

Создавать темы 15-Мар-2015 07:30

[Профиль]  [ЛС] 

Silver Boy

Стаж: 2 года 7 месяцев

Сообщений: 48

Симпатии: 164

Добавьте:
Перевод: Оригинал (русский) [Лицензия]

Создавать темы 15-Мар-2015 08:32

[Профиль]  [ЛС] 

dima

Стаж: 2 года 7 месяцев

Сообщений: 7

Симпатии: 11

Рейтинг шикарный)

Создавать темы 15-Мар-2015 12:31

[Профиль]  [ЛС] 

IIpu3pak

Стаж: 5 лет 8 месяцев

Сообщений: 258

Симпатии: 53

Эхх. Левин, ты олень.

Создавать темы 15-Мар-2015 13:17

[Профиль]  [ЛС] 

yozhik

Стаж: 4 года 5 месяцев

Сообщений: 82

Симпатии: 65

зачем они это делают

Создавать темы 01-Сен-2015 16:34

[Профиль]  [ЛС] 
Показать сообщения:    
Ответить на тему

Текущее время: 24-Окт 16:25

Часовой пояс: UTC + 5



Вы не можете начинать темы
Вы не можете отвечать на сообщения
Вы не можете редактировать свои сообщения
Вы не можете удалять свои сообщения
Вы не можете голосовать в опросах
Вы не можете прикреплять файлы к сообщениям
Вы не можете скачивать файлы