Берцы (Екатерина Шагалова) [2014, драма, WEB-DLRip]

Ответить на тему
 

kat222000 ®

Стаж: 6 лет 6 месяцев

Сообщений: 608

Симпатии: 1055

Берцы -Страна: Россия
Жанр: драма
Год выпуска: 2014
Продолжительность: 01:44:26-Режиссёр: Екатерина Шагалова-В ролях: Тимофей Каратаев, Ксения Лаврова-Глинка, Татьяна Лютаева, Алексей Барабаш, Дарья Екамасова, Мария Антонова, Георгий Губин-Описание: Сергей — молодой независимый тележурналист, уволен с работы за слишком смелый репортаж. Ирина — ведущая кабельного ТВ, живет в гражданском браке, не верит, что ее жизнь может измениться. Берцы — высокие армейские ботинки, которые Сергею подарил друг, сказав, что они «приводят куда надо». Сергея они приводят к Ирине. Жизнь обоих стремительно меняется к лучшему. Но вскоре берцы оказываются выброшенными на свалку.-- -Возраст: зрителям, достигшим 16 лет-Рейтинг MPAA: лицам до 17 лет обязательно присутствие взрослого-Качество видео: WEB-DLRip
Формат видео: AVI
Видео кодек: Xvid
Аудио кодек: AC3
Видео: 720x368 (1.80:1), 25 fps, Xvid ~1 786 kbps avg, 0.270 bit/pixel
Аудио: 48 kHz, AC3 Dolby Digital, 2/0 (L,R) ch, ~192.00 kbps avg-

MediaInfo

General
Format : AVI
Format/Info : Audio Video Interleave
File size : 1.45 GiB
Duration : 1h 44mn
Overall bit rate : 1 989 Kbps
Writing application : VirtualDubMod 1.5.10.3 | www.virtualdub-fr.org || (build 2550/release)
Writing library : VirtualDubMod build 2550/release
Video
ID : 0
Format : MPEG-4 Visual
Format profile : Advanced [email protected]
Format settings, BVOP : Yes
Format settings, QPel : No
Format settings, GMC : No warppoints
Format settings, Matrix : Custom
Codec ID : XVID
Codec ID/Hint : XviD
Duration : 1h 44mn
Bit rate : 1 787 Kbps
Width : 720 pixels
Height : 368 pixels
Display aspect ratio : 1.957
Frame rate : 25.000 fps
Color space : YUV
Chroma subsampling : 4:2:0
Bit depth : 8 bits
Scan type : Progressive
Compression mode : Lossy
Bits/(Pixel*Frame) : 0.270
Stream size : 1.30 GiB (90%)
Writing library : XviD 73
Audio
ID : 1
Format : AC-3
Format/Info : Audio Coding 3
Mode extension : CM (complete main)
Format settings, Endianness : Big
Codec ID : 2000
Duration : 1h 44mn
Bit rate mode : Constant
Bit rate : 192 Kbps
Channel(s) : 2 channels
Channel positions : Front: L R
Sampling rate : 48.0 KHz
Bit depth : 16 bits
Compression mode : Lossy
Stream size : 143 MiB (10%)
Alignment : Split accross interleaves
Interleave, duration : 40 ms (1.00 video frame)
Interleave, preload duration : 500 ms
-

Скриншоты



-

Создавать темы 13-Сен-2015 20:04

[Профиль]  [ЛС] 
Показать сообщения:    
Ответить на тему

Текущее время: 24-Окт 16:13

Часовой пояс: UTC + 5



Вы не можете начинать темы
Вы не можете отвечать на сообщения
Вы не можете редактировать свои сообщения
Вы не можете удалять свои сообщения
Вы не можете голосовать в опросах
Вы не можете прикреплять файлы к сообщениям
Вы не можете скачивать файлы