Воин (Алексей Андрианов) [2015, драма, спорт, WEB-DL H.264/1080p-LQ] [iTunes]

Ответить на тему
 

ElATE ®

Стаж: 2 года 2 месяца

Сообщений: 19

Симпатии: 39

Воин (2015) WEB-DL [H.264/1080p-LQ]«Дерись за семью. Борись за любовь»- Страна: Россия
Производство: Art Pictures Studio, ВГТРК
Год выпуска: 2015
Жанр: драма, спорт
Продолжительность: 01:27:05
Перевод: Не требуется (Русский, iTunes)-Режиссер: Алексей Андрианов
Продюсер: Дмитрий Рудовский, Антон Златопольский, Фёдор Бондарчук
Актеры: Фёдор Бондарчук, Сергей Бондарчук, Светлана Ходченкова, Владимир Яглыч, Юрий Яковлев-Суханов, Александр Новин, Александр Балуев, Мария Андреева, Владимир Селиванов, Екатерина Мельник-Описание:
Фильм рассказывает драматическую историю двух братьев, профессиональных спортсменов по боям ММА. Это картина о долге и жизненных ценностях, показанных сквозь призму жизни братьев и их отца — крепких и гордых людей, фильм о семье, об обидах, которые мы носим в себе десятилетиями, о боли, которую мы причиняем подчас бездумно, и о прощении, которому всегда должно найтись место в наших сердцах.-Дата российской премьеры: 1 октября 2015, «Централ Партнершип»-Качество: WEB-DL [H.264/1080p-LQ]
Контейнер: MKV
Видео: MPEG-4 AVC/H.264, 1908x796 (2,40:1), 4 398 Kbps, 24.000 fps, 0.121 b/px
Аудио: АС3, 6 ch, 384 kbps, 48 000 Hz
Субтитры: Отсутствуют

MediaInfo:

General
Unique ID                                : 189460993507911065016349781099175369096 (0x8E88DC2D7BCB1306A7C74F30195E5988)
Complete name                            : B01H.2OI5.O.WEB-DL.1080p.mkv
Format                                   : Matroska
Format version                           : Version 4 / Version 2
File size                                : 2.97 GiB
Duration                                 : 1h 27mn
Overall bit rate                         : 4 879 Kbps
Movie name                               : B01H.2OI5.O.WEB-DL.1080p
Encoded date                             : UTC 2015-11-04 02:19:36
Writing application                      : mkvmerge v7.1.0 ('Good Love') 64bit built on Jul 27 2014 13:06:55
Writing library                          : libebml v1.3.0 + libmatroska v1.4.1
DURATION                                 : 01:27:05.952000000
NUMBER_OF_FRAMES                         : 163311
NUMBER_OF_BYTES                          : 250845696
_STATISTICS_WRITING_APP                  : mkvmerge v7.1.0 ('Good Love') 64bit built on Jul 27 2014 13:06:55
_STATISTICS_WRITING_DATE_UTC             : 2015-11-04 02:19:36
_STATISTICS_TAGS                         : BPS DURATION NUMBER_OF_FRAMES NUMBER_OF_BYTES
Video
ID                                       : 1
Format                                   : AVC
Format/Info                              : Advanced Video Codec
Format profile                           : [email protected]
Format settings, CABAC                   : Yes
Format settings, ReFrames                : 5 frames
Codec ID                                 : V_MPEG4/ISO/AVC
Duration                                 : 1h 27mn
Bit rate                                 : 4 398 Kbps
Width                                    : 1 908 pixels
Height                                   : 796 pixels
Display aspect ratio                     : 2.40:1
Frame rate mode                          : Constant
Frame rate                               : 24.000 fps
Color space                              : YUV
Chroma subsampling                       : 4:2:0
Bit depth                                : 8 bits
Scan type                                : Progressive
Bits/(Pixel*Frame)                       : 0.121
Stream size                              : 2.68 GiB (90%)
Title                                    : VOIN_WEB_DL_1080p-BLUEBIRD
Language                                 : Russian
Default                                  : Yes
Forced                                   : No
Color primaries                          : BT.709
Transfer characteristics                 : BT.709
Matrix coefficients                      : BT.709
Audio
ID                                       : 2
Format                                   : AC-3
Format/Info                              : Audio Coding 3
Mode extension                           : CM (complete main)
Format settings, Endianness              : Big
Codec ID                                 : A_AC3
Duration                                 : 1h 27mn
Bit rate mode                            : Constant
Bit rate                                 : 384 Kbps
Channel count                            : 6 channels
Channel positions                        : Front: L C R, Side: L R, LFE
Sampling rate                            : 48.0 KHz
Bit depth                                : 16 bits
Compression mode                         : Lossy
Stream size                              : 239 MiB (8%)
Title                                    : [ORIGINAL] DD 5.1 @ 384 kbps
Language                                 : Russian
Default                                  : Yes
Forced                                   : No
Menu
00:00:00.000                             : en:1
00:09:46.000                             : en:2
00:20:07.000                             : en:3
00:30:27.000                             : en:4
00:40:08.000                             : en:5
00:51:44.000                             : en:6
01:01:09.000                             : en:7
01:12:40.000                             : en:8
01:23:30.000                             : en:9

Скриншоты



Создавать темы 14-Ноя-2015 14:15

[Профиль]  [ЛС] 

Топик был перенесен из форума Зарубежное кино в форум Российские кино
ElATE

Создавать темы 14-Ноя-2015 14:15

 

Топик был перенесен из форума Российские кино в форум HD-AVC
Mixer City

Создавать темы 14-Ноя-2015 20:43

 
Показать сообщения:    
Ответить на тему

Текущее время: 20-Сен 14:27

Часовой пояс: UTC + 5



Вы не можете начинать темы
Вы не можете отвечать на сообщения
Вы не можете редактировать свои сообщения
Вы не можете удалять свои сообщения
Вы не можете голосовать в опросах
Вы не можете прикреплять файлы к сообщениям
Вы не можете скачивать файлы