400 дней / 400 Days (Мэтт Остерман) [2015, США / New Artists Alliance, фантастика, триллер, детектив, HDRip] L2

Ответить на тему
 

Bilol ®

Стаж: 2 года 2 месяца

Сообщений: 12

Симпатии: 41

400 дней / 400 Days
Страна:США / New Artists Alliance
Жанр: фантастика, триллер, детектив
Год выпуска: 2015
Продолжительность: 01:30:17
Перевод: Любительский (двухголосый) [Sunshine Studio]
Режиссер: Мэтт Остерман
В ролях:Фрэнк Эшмор, Люк Барнетт, Доминик Богарт,Грант Боулер, Rene Bremond,Дейн Кук, Nicole Derseweh, Gretchen Dickason, Ким Эстес,
Томас Кэвэна.
Описание: Сюжет вращается вокруг астронавтов, отправившихся на симуляторе в путешествие по направлению к далекой планете. Цель этого
эксперимента состоит в том, чтобы проверить членов экипажа космического корабля на психологическую совместимость во время длительного полета.
Вскоре психика астронавтов дает сбой, и, оказавшись за бортом, они начинают понимать, что полет вовсе не был тренировочным.

Качество видео: HDRip
Формат видео: AVI
Видео: Xvid 720x400 23.976fps 1963kbps
Аудио: Dolby AC3 48000Hz stereo 192kbps

MediaInfo

Общее
Полное имя: D:\kino\400.Days.2015.DVO.HDRip.avi
Формат: AVI
Формат/Информация: Audio Video Interleave
Размер файла: 1,37 Гбайт
Продолжительность: 1 ч. 30 м.
Общий поток: 2165 Кбит/сек
Программа кодирования: VirtualDubMod 1.5.10.3 | www.virtualdub-fr.org || (build 2550/release)
Библиотека кодирования: VirtualDubMod build 2550/release
Видео
Идентификатор: 0
Формат: MPEG-4 Visual
Профиль формата : Advanced [email protected]
Параметр BVOP формата : 2
Параметр QPel формата : Нет
Параметр GMC формата : Без точки перехода
Параметр матрицы формата : Default (MPEG)
Идентификатор кодека : XVID
Идентификатор кодека/Подсказка : XviD
Продолжительность : 1 ч. 30 м.
Битрейт : 1964 Кбит/сек
Ширина : 720 пикселей
Высота : 400 пикселей
Соотношение сторон : 16:9
Частота кадров : 23,976 кадра/сек
Цветовое пространство : YUV
Субдискретизация насыщенности : 4:2:0
Битовая глубина : 8 бит
Тип развёртки : Прогрессивная
Метод сжатия : С потерями
Бит/(Пиксели*Кадры) : 0.284
Размер потока : 1,24 Гбайт (91%)
Библиотека кодирования : XviD 1.2.1 (UTC 2008-12-04)
Аудио
Идентификатор : 1
Формат : AC-3
Формат/Информация : Audio Coding 3
Расширение режима : CM (complete main)
Параметр Endianness формата : Big
Идентификатор кодека : 2000
Продолжительность : 1 ч. 30 м.
Вид битрейта : Постоянный
Битрейт : 192 Кбит/сек
Каналы : 2 канала
Расположение каналов : Front: L R
Частота : 48,0 КГц
Битовая глубина : 16 бит
Метод сжатия : С потерями
Размер потока : 124 Мбайт (9%)
Выравнивание : Разделение по промежуткам
Продолжительность промежутка : 42 мс. (1,00 видеокадр)
Время предзагрузки промежутка : 500 мс.

Скриншоты





Последний раз редактировалось: Bilol (2015-12-03 20:26), всего редактировалось 2 раз(а)

Создавать темы 02-Дек-2015 20:22

[Профиль]  [ЛС] 

iggi86

Стаж: 6 лет 9 месяцев

Сообщений: 10

так и не понятно, для чего их так посадили на 400 дней, конец фильма ещё больше запутал

Создавать темы 03-Дек-2015 09:29

[Профиль]  [ЛС] 

axeman

Стаж: 5 лет

Сообщений: 380

Симпатии: 50

так держать раздачу ребята, всем спасибо
зря качал, тв4

Создавать темы 03-Дек-2015 10:57

[Профиль]  [ЛС] 

g-hackerz

Стаж: 5 лет 5 месяцев

Сообщений: 48

как будто фильм не захотели доводить до конца и бросили. припоминается мне фильм прометей, после которого я был расстроен, но не до такой степени как в этот раз

Создавать темы 03-Дек-2015 23:14

[Профиль]  [ЛС] 
Показать сообщения:    
Ответить на тему

Текущее время: 18-Ноя 04:14

Часовой пояс: UTC + 5



Вы не можете начинать темы
Вы не можете отвечать на сообщения
Вы не можете редактировать свои сообщения
Вы не можете удалять свои сообщения
Вы не можете голосовать в опросах
Вы не можете прикреплять файлы к сообщениям
Вы не можете скачивать файлы