Настоящие блондинки / Concrete Blondes (Николас Каликов) [2013, США, боевик, комедия, криминал, BDRip] (MVO)

Ответить на тему
 

lucky999 ®

Стаж: 1 год 11 месяцев

Сообщений: 32

Симпатии: 43

Настоящие блондинки / Concrete Blondes
Страна: США
Жанр: боевик, комедия, криминал
Год выпуска: 2013
Продолжительность: 01:31:29
Перевод: Профессиональное (многоголосое)
Cубтитры: нет
Режиссер: Николас Каликов
В ролях: Карли Поуп, Самира Армстронг, Диора Бэрд, Джон Рис-Дэвис, Брайан Смит, Джерри Ректор, Тони Алькантар, Джеймс Бэмфорд, Лоссен Чэмберс, Бретт Чан
Описание: После бурной ночи трое молодых женщин неожиданно натыкаются на сумку с тремя миллионами долларов. Пытаясь сохранить деньги, они разрабатывают план вывоза денег из страны. Но ситуация усложняется, когда одна из девушек рассказывает о плане своему другу, который в свою очередь задолжал кругленькую сумму денег главарю одной преступной группировки. Теперь все жаждут заполучить чемодан с деньгами… и никто не знает, кому же он в итоге достанется.
Доп. информация: сценарий : Николас Каликов, Роб Уоррен Томас, Крис Виатт
продюсер: Шон Ковел, Питер Каликов, Дайан Ричи, ...
оператор : Марк Ирвин
композитор: Вейн Крамер
художник: Тинк, Аджа Кай Роули, Кэти Мур, ...
монтаж: Джеймс Ренфро
Качество видео: BDRip
Формат видео: AVI
Видео: Xvid 640x352 23.976fps 999kbps [V: mpeg4 advanced simple profile, yuv420p, 640x352, 999 kb/s]
Аудио: MP3 48000Hz stereo 128kbps [A: mp3, 48000 Hz, stereo, 128 kb/s]

MediaInfo

General
Complete name : D:\torrent\Nastojaschie.blondinki.2013.HDRip.740.avi
Format : AVI
Format/Info : Audio Video Interleave
File size : 744 MiB
Duration : 1h 31mn
Overall bit rate : 1 137 Kbps
Writing application : VirtualDubMod 1.5.10.3 | www.virtualdub-fr.org || (build 2550/release)
Writing library : VirtualDubMod build 2550/release
Video
ID : 0
Format : MPEG-4 Visual
Format profile : Advanced [email protected]
Format settings, BVOP : 1
Format settings, QPel : No
Format settings, GMC : No warppoints
Format settings, Matrix : Custom
Codec ID : XVID
Codec ID/Hint : XviD
Duration : 1h 31mn
Bit rate : 999 Kbps
Width : 640 pixels
Height : 352 pixels
Display aspect ratio : 16:9
Frame rate : 23.976 fps
Color space : YUV
Chroma subsampling : 4:2:0
Bit depth : 8 bits
Scan type : Progressive
Compression mode : Lossy
Bits/(Pixel*Frame) : 0.185
Stream size : 654 MiB (88%)
Writing library : XviD 73
Audio
ID : 1
Format : MPEG Audio
Format version : Version 1
Format profile : Layer 3
Codec ID : 55
Codec ID/Hint : MP3
Duration : 1h 31mn
Bit rate mode : Constant
Bit rate : 128 Kbps
Channel(s) : 2 channels
Sampling rate : 48.0 KHz
Compression mode : Lossy
Stream size : 83.7 MiB (11%)
Alignment : Aligned on interleaves
Interleave, duration : 42 ms (1.00 video frame)
Interleave, preload duration : 504 ms
Writing library : LAME3.99r
Encoding settings : -m s -V 4 -q 2 -lowpass 17 -b 128

Скриншот c названием фильма

Скриншоты






Создавать темы 04-Дек-2015 22:29

[Профиль]  [ЛС] 
Показать сообщения:    
Ответить на тему

Текущее время: 22-Авг 23:47

Часовой пояс: UTC + 5



Вы не можете начинать темы
Вы не можете отвечать на сообщения
Вы не можете редактировать свои сообщения
Вы не можете удалять свои сообщения
Вы не можете голосовать в опросах
Вы не можете прикреплять файлы к сообщениям
Вы не можете скачивать файлы