Решала 2 (Роман Асхаев) [2015, драма, криминал, WEBRip]

Ответить на тему
 

mp1988 ®

Стаж: 6 лет 10 месяцев

Сообщений: 607

Симпатии: 971

Решала 2
Жанр: драма, криминал
Год выпуска: 2015
Продолжительность: 01:22:00
Режиссёр: Роман Асхаев
В ролях: Александр Фролов, Моисей Куртанидзе, Константин Озеров, Чингиз Аздаев, Арина Есина, Руслан Балакшиев, Алина Намсараева
Описание: После событий, произошедших в первой части, прошло 4 года. Обстановка в городе напряженная, за сферы влияний борются два криминальных авторитета - Витя Черный и Добрый. В это время из тюрьмы выходит Завгар, и Витя Черный надеется на его поддержку. Но Завгар горит желанием отомстить Каше, ведь по его наводке он отправился за решетку. Каша уехал в другой город, он впервые в жизни по-настоящему счастлив. У него жена, маленький сын, но прошлое напоминает о себе, и теперь Каша вынужден решать, как жить дальше.
Качество видео: WEBRip
Формат видео: AVI
Видео кодек: XviD
Аудио кодек: AC3
Видео: XviD, 1974 Kb/s, 720x320
Аудио: AC3, 384 Kb/s (2 ch)

MediaInfo

Format : AVI
Format/Info : Audio Video Interleave
File size : 1.37 GiB
Duration : 1h 22mn
Overall bit rate : 2 370 Kbps
Writing application : VirtualDubMod 1.5.10.3 | www.virtualdub-fr.org || (build 2550/release)
Writing library : VirtualDubMod build 2550/release
Video
ID : 0
Format : MPEG-4 Visual
Format profile : Advanced [email protected]
Format settings, BVOP : 2
Format settings, QPel : No
Format settings, GMC : No warppoints
Format settings, Matrix : Default (MPEG)
Codec ID : XVID
Codec ID/Hint : XviD
Duration : 1h 22mn
Bit rate : 1 977 Kbps
Width : 720 pixels
Height : 320 pixels
Display aspect ratio : 2.25:1
Frame rate : 25.000 fps
Color space : YUV
Chroma subsampling : 4:2:0
Bit depth : 8 bits
Scan type : Progressive
Compression mode : Lossy
Bits/(Pixel*Frame) : 0.343
Stream size : 1.14 GiB (83%)
Writing library : XviD 73
Audio
ID : 1
Format : AC-3
Format/Info : Audio Coding 3
Mode extension : CM (complete main)
Format settings, Endianness : Big
Codec ID : 2000
Duration : 1h 22mn
Bit rate mode : Constant
Bit rate : 384 Kbps
Channel(s) : 2 channels
Channel positions : Front: L R
Sampling rate : 48.0 KHz
Bit depth : 16 bits
Compression mode : Lossy
Stream size : 227 MiB (16%)
Alignment : Split accross interleaves
Interleave, duration : 40 ms (1.00 video frame)
Interleave, preload duratio : 500 ms

Скриншоты



Создавать темы 03-Дек-2015 21:38

[Профиль]  [ЛС] 

mp1988 ®

Стаж: 6 лет 10 месяцев

Сообщений: 607

Симпатии: 971

https://tas-ix.net/viewtopic.php?t=74378

Создавать темы 03-Дек-2015 21:47

[Профиль]  [ЛС] 

TronT

Стаж: 7 лет 2 месяца

Сообщений: 27

Симпатии: 7

Спасибо. Надеюсь звук нормальный

Создавать темы 08-Дек-2015 09:30

[Профиль]  [ЛС] 
Показать сообщения:    
Ответить на тему

Текущее время: 18-Дек 23:41

Часовой пояс: UTC + 5



Вы не можете начинать темы
Вы не можете отвечать на сообщения
Вы не можете редактировать свои сообщения
Вы не можете удалять свои сообщения
Вы не можете голосовать в опросах
Вы не можете прикреплять файлы к сообщениям
Вы не можете скачивать файлы