Зеленый Фонарь / Green Lantern (Мартин Кэмпбелл) [2011, США, фантастика, боевик, триллер, приключения, HDRip] (Dub)

Ответить на тему
 

-ARTUR- ®

Стаж: 2 года

Сообщений: 50

Симпатии: 78

-Зеленый Фонарь / Green Lantern- Страна: США
Жанр: фантастика, боевик, триллер, приключения
Год выпуска: 2011
Продолжительность: 124 мин. / 02:03:39
Перевод: Профессиональный (дублированный)
Cубтитры: нет
Режиссер: Мартин Кэмпбелл-В ролях: Райан Рейнольдс, Блейк Лайвли, Питер Сарсгаард, Марк Стронг, Анджела Бассетт, Тим Роббинс, Джей О. Сэндерс, Джон Тенни, Темуэра Моррисон, Таика Вайтити-Описание: Герой фильма - Хэл Джордан, отважный и талантливый пилот. Герой знает себе цену и уверен в своих силах, но однажды его везению приходит конец. Во время одного тренировочного полета он случайно сбивает дорогостоящий истребитель, и вылетает со своей работы.
На другой день после увольнения Хэл обнаруживает умирающего инопланетянина, который вручает ему «зеленый фонарь» и кольцо. Воины, объединенные под знаком «зеленого фонаря», обладают огромной силой и поклялись защищать законы галактики. Надев кольцо и произнеся присягу, Хэл узнает, что теперь является членом корпуса Зеленых фонарей, и должен наряду с другими воинами бороться против сил зла.
Вскоре герой узнает, что древний враг вселенной, Паралакс, сбежал из заключения и вновь угрожает разрушить сложившееся равновесие. В образе супергероя Хэл возвращается на Землю, чтобы дать отпор доктору Гектору Хаммонду, который является агентом Параллакса. С помощью подруги Кэрол Феррис герой должен научиться управлять мощью кольца и поразить зло.
Доп. информация:
бюджет: 200 000 000
сборы в США: 116 601 172
сборы в мире: + 114 600 000 = $231 201 172
сборы в России: 4 885 617
DVD в США: 19 089 476-Качество видео: HDRip
Формат видео: AVI-Видео: Xvid 688x288 23.976fps 1226kbps
Аудио: Russian: Dolby AC3 48000Hz 6ch 384 kbps

MediaInfo

Фонарь\Zelenyi.Fonar.2011.Extended.Cut.MVO.HDRip.XviD.AC3.-Vaippp.avi
Format                                   : AVI
Format/Info                              : Audio Video Interleave
File size                                : 1.45 GiB
Duration                                 : 2h 3mn
Overall bit rate                         : 1 684 Kbps
Movie name                               : Green Lantern / Extended Cut (2011)
Director                                 : Vaippp
Genre                                    : Fantasy
Writing application                      : VirtualDubModRus 1.5.10.2 (build 2542/release)
Writing library                          : VirtualDubMod build 2542/release
Original source form/Name                : Movie
Comment                                  : HDRip
Video
ID                                       : 0
Format                                   : MPEG-4 Visual
Format profile                           : Advanced [email protected]
Format settings, BVOP                    : 1
Format settings, QPel                    : No
Format settings, GMC                     : No warppoints
Format settings, Matrix                  : Custom
Codec ID                                 : XVID
Codec ID/Hint                            : XviD
Duration                                 : 2h 3mn
Overall bit rate                         : 1 684 Kbps
Movie name                               : Green Lantern / Extended Cut (2011)
Director                                 : Vaippp
Genre                                    : Fantasy
Writing application                      : VirtualDubModRus 1.5.10.2 (build 2542/release)
Writing library                          : VirtualDubMod build 2542/release
Original source form/Name                : Movie
Comment                                  : HDRip
Video
ID                                       : 0
Format                                   : MPEG-4 Visual
Format profile                           : Advanced [email protected]
Format settings, BVOP                    : 1
Format settings, QPel                    : No
Format settings, GMC                     : No warppoints
Format settings, Matrix                  : Custom
Codec ID                                 : XVID
Codec ID/Hint                            : XviD
Duration                                 : 2h 3mn
Bit rate                                 : 1 226 Kbps
Width                                    : 688 pixels
Height                                   : 288 pixels
Display aspect ratio                     : 2.40:1
Frame rate                               : 23.976 fps
Color space                              : YUV
Chroma subsampling                       : 4:2:0
Bit depth                                : 8 bits
Scan type                                : Progressive
Compression mode                         : Lossy
Bits/(Pixel*Frame)                       : 0.258
Stream size                              : 1.06 GiB (73%)
Writing library                          : XviD 64
Audio
ID                                       : 1
Format                                   : AC-3
Format/Info                              : Audio Coding 3
Mode extension                           : CM (complete main)
Format settings, Endianness              : Big
Codec ID                                 : 2000
Duration                                 : 2h 3mn
Bit rate mode                            : Constant
Bit rate                                 : 448 Kbps
Channel(s)                               : 6 channels
Channel positions                        : Front: L C R, Side: L R, LFE
Sampling rate                            : 48.0 KHz
Bit depth                                : 16 bits
Compression mode                         : Lossy
Stream size                              : 396 MiB (27%)
Alignment                                : Split accross interleaves
Interleave, duration                     : 42 ms (1.00 video frame)
Interleave, preload duration             : 500 ms

Скриншоты





Последний раз редактировалось: -ARTUR- (2015-12-09 15:07), всего редактировалось 3 раз(а)

Создавать темы 07-Дек-2015 18:07

[Профиль]  [ЛС] 

Каротажник

Стаж: 3 года 10 месяцев

Сообщений: 195

Симпатии: 211

-ARTUR-, скриншоты не соответствует Тех.данным пере залейте и количество скринов должны быть не менее 3 штук
залейте Медиаинфо полностью

Создавать темы 07-Дек-2015 20:10

[Профиль]  [ЛС] 

-ARTUR- ®

Стаж: 2 года

Сообщений: 50

Симпатии: 78

Каротажник, Я всё исправил, проверте ещё раз плиз!

Создавать темы 08-Дек-2015 10:47

[Профиль]  [ЛС] 

Admin

Стаж: 5 лет 7 месяцев

Сообщений: 580

Симпатии: 106

залейте скриншоты по размеру видео.

Создавать темы 08-Дек-2015 12:22

[Профиль]  [ЛС] 

-ARTUR- ®

Стаж: 2 года

Сообщений: 50

Симпатии: 78

Admin, Я всё исправил !

Создавать темы 09-Дек-2015 17:41

[Профиль]  [ЛС] 
Показать сообщения:    
Ответить на тему

Текущее время: 16-Авг 22:38

Часовой пояс: UTC + 5



Вы не можете начинать темы
Вы не можете отвечать на сообщения
Вы не можете редактировать свои сообщения
Вы не можете удалять свои сообщения
Вы не можете голосовать в опросах
Вы не можете прикреплять файлы к сообщениям
Вы не можете скачивать файлы