Чистилище - Purgatory (Михаил Ермолов) [1997, Боевик / Военный / Драма, DVDRip]

Ответить на тему
 

БЕГИ 1996 ®

Стаж: 4 года 1 месяц

Сообщений: 17

Симпатии: 15

Чистилище - Purgatory
Год выпуска: 1997
Страна: Россия
Жанр: Боевик / Военный / Драма
Продолжительность: 01:54:44
Перевод: Не требуется (Лицензия, студия ОРТ)
Режиссер: Михаил Ермолов
Сценарий: Александр Невзоров
Продюсер: Борис Березовский, Александр Невзоров, Виктор Маталыцкий
-
Премьера в России: 23 марта 1998
-
В ролях: Виктор Степанов, Дмитрий Нагиев, Вячеслав Бурлачко, Александр Баранов, Владимир Рымига, Роман Жилкин, Ирина Веселина, Виктория Матвеева, Сергей Рост, Георгий Антонов
Описание: В центре сюжета этой военной драмы бои за больничный комплекс в Грозном, занятый российскими солдатами во главе с раненым полковником, потерявшим глаз. Между ним и командиром подразделения армии Ичкерии ведется диалог в эфире. Все экранное время занимают интенсивные боевые действия, снятые в полудокументальной, натуралистической манере.

Знаете ли вы, что...

Слова которые говорит капитан командиру чеченцев Исрапилову перед своей смертью — это слова из интервью Невзорову реального солдата 1-ой чеченской кампании.
Фильм основан на реальных событиях. Александр Невзоров на самом деле был в той больнице, где разворачиваются события его фильма.
В следующие два-три дня после демонстрации картины граждане в метро и из авто, как сговорясь, дружно и многочисленно подавали довольно крупные купюры проезжающим в инвалидных колясках безруким и безногим людям в камуфляже.
Героя Вячеслава Бурлачко (позывной «Кобра») озвучивает октавист Петербургской капеллы Александр Орт, человек с одним из самых низких в мире голосов.
МО РФ отказало Невзорову на съёмках в своей поддержке. По словам Невзорова, «они мне выставили счет за всё, что я просил, и там за каждую стреляную гильзу я должен был заплатить… 5 или 6 тысяч рублей! А мне их нужны миллионы, потому что стреляными гильзами засыпано всё в местах ведения боевых действий. Видимо, армия прочла сценарий и осталась недовольна. Поэтому помощь нам оказали внутренние войска. В массовках снимались солдаты, прошедшие через Чечню…
Съемки проходили под Санкт-Петербургом, в Сестрорецке. Условия работы актеров были фактически приближены к боевым. Во-первых, руин вокруг было столько, что можно было подумать, что война шла не в Чечне, а непосредственно в Сестрорецке. А во-вторых, над кинематографистами буквально издевалась погода: фильм начали снимать при температуре -22 градуса, а закончили при +4 — и все это в течение одной зимы. То шел снег, то была слякоть, и все жались к единственной печке, стараясь согреться, — от девушек-реквизиторов до артистов-негров, которые в картине сражаются на чеченской стороне. Когда же съемки были завершены и артисты приступили к озвучиванию картины, на дворе стояло уже лето, довольно жаркое. Кондиционер включать было нельзя, чтобы шум не мешал работе, и температура в студии порой доходила до + 50.
На роль Тукуза Исрапилова пробовалось много кандидатур, в том числе известный английский актёр Шон Бин (Sean Bean). Но по причине того, что актёр «очень английский», было решено упростить образ чеченского командира.

-
Качество: DVDRip
Формат: AVI (Audio Video Interleaved)
Видео кодек: XVID
Аудио кодек: AC3 (Advanced Audio Codec)
Видео: Xvid 720x400 29.97 fps 1 378 kbps
Аудио: Dolby AC3 48000Hz Stereo 320 kbps

Медиа инфо

Video
ID : 0
Format : MPEG-4 Visual
Format profile : Advanced [email protected]
Format settings, BVOP : 1
Format settings, QPel : No
Format settings, GMC : No warppoints
Format settings, Matrix : Custom
Codec ID : XVID
Codec ID/Hint : XviD
Duration : 1h 54mn
Bit rate : 1 378 Kbps
Width : 720 pixels
Height : 400 pixels
Display aspect ratio : 16:9
Frame rate : 29.970 fps
Color space : YUV
Chroma subsampling : 4:2:0
Bit depth : 8 bits
Scan type : Progressive
Compression mode : Lossy
Bits/(Pixel*Frame) : 0.160
Stream size : 1.10 GiB (81%)
Writing library : XviD 1.2.0.dev47 (UTC 2006-11-01)
Audio
ID : 1
Format : AC-3
Format/Info : Audio Coding 3
Mode extension : CM (complete main)
Format settings, Endianness : Big
Codec ID : 2000
Duration : 1h 54mn
Bit rate mode : Constant
Bit rate : 320 Kbps
Channel count : 2 channels
Channel positions : Front: L R
Sampling rate : 48.0 KHz
Bit depth : 16 bits
Compression mode : Lossy
Stream size : 263 MiB (19%)
Alignment : Split accross interleaves
Interleave, duration : 96 ms (2.88 video frames)
Interleave, preload duration : 96 ms
Language : Russian

Скриншоты




Создавать темы 16-Мар-2014 02:23

[Профиль]  [ЛС] 

Дмитриев

Стаж: 7 лет 2 месяца

Сообщений: 139

Симпатии: 12

БЕГИ 1996, Спасибо за релиз
Фильм просто отпад
один из самых реалистичных фильмов про войну

Создавать темы 17-Мар-2014 00:13

[Профиль]  [ЛС] 

artur78-h

Стаж: 5 лет 4 месяца

Сообщений: 114

дааа...сильный фильм +
качну...спасибо

Создавать темы 17-Мар-2014 00:44

[Профиль]  [ЛС] 

artur78-h

Стаж: 5 лет 4 месяца

Сообщений: 114

чет скорость не блещит....

Создавать темы 17-Мар-2014 15:10

[Профиль]  [ЛС] 

artur78-h

Стаж: 5 лет 4 месяца

Сообщений: 114

народ постойте на раздаче....14% осталось ....10 дней качаю по капле...!!!

Создавать темы 31-Мар-2014 00:08

[Профиль]  [ЛС] 

Azamat1973

Стаж: 4 года 6 месяцев

Сообщений: 1

БЕГИ 1996, постойте на раздаче пожалуйста.

Создавать темы 11-Апр-2014 23:06

[Профиль]  [ЛС] 

siyovush101

Стаж: 3 года 6 месяцев

Сообщений: 205

Симпатии: 71



Я взял это у Кубаева Муххидинна. так как самый первый мой торрент был его))) Ты Тоже??)))

Создавать темы 27-Июн-2014 10:42

[Профиль]  [ЛС] 

DrSkippeR

Стаж: 3 года 8 месяцев

Сообщений: 6

встаньте на раздачу плиз

Создавать темы 18-Дек-2015 20:31

[Профиль]  [ЛС] 
Показать сообщения:    
Ответить на тему

Текущее время: 24-Авг 13:53

Часовой пояс: UTC + 5



Вы не можете начинать темы
Вы не можете отвечать на сообщения
Вы не можете редактировать свои сообщения
Вы не можете удалять свои сообщения
Вы не можете голосовать в опросах
Вы не можете прикреплять файлы к сообщениям
Вы не можете скачивать файлы