Счастливого Рождества / Merry Christmas/ Joyeux Noel (Кристиан Карион / Christian Carion) [2005 г., драма, мелодрама, военный, история, музыка, BDRip]

Ответить на тему
 

Bilol ®

Стаж: 2 года 1 месяц

Сообщений: 12

Симпатии: 41

Счастливого Рождества / Merry Christmas
Жанр: драма, мелодрама, военный, история, музыка
Год выпуска: 2005
Продолжительность: 01:51:01
Режиссёр: Кристиан Карион

В ролях: Дайан Крюгер,Бенно Фюрман,Гийом Кане,Гари Льюис,Даниэль Брюль,Дэни Бун,Алекс Фернс,Стивен Робертсон,Бернар Ле Кок,Томас Шмаузер

Описание: В канун Рождества 1914 года четверо людей пережили незабываемое. Шотландский священник, французский лейтенант, немецкий тенор и его возлюбленная оказались в самом сердце спонтанного братства, возникшего между траншеями немцев, англичан и французов.
Ружья были оставлены на дне окопов, а сами солдаты и офицеры вышли навстречу друг другу, чтобы обменяться сигаретами, разделить шоколад и пожелать друг другу: «Счастливого Рождества!»

Качество видео:BDRip
Формат видео: MP4
Видео: MPEG4 Video (H264) 720x304 24fps 728kbps
Аудио: AAC 44100Hz stereo 127kbps
 

MediaInfo

General
Complete name : D:\Счастливого Рождества.mp4
Format : MPEG-4
Format profile : Base Media
Codec ID : isom
File size : 682 MiB
Duration : 1h 51mn
Overall bit rate : 858 Kbps
Writing application : Lavf54.63.104
Video
ID : 1
Format : AVC
Format/Info : Advanced Video Codec
Format profile : [email protected]
Format settings, CABAC : Yes
Format settings, ReFrames : 1 frame
Codec ID : avc1
Codec ID/Info : Advanced Video Coding
Duration : 1h 51mn
Bit rate : 726 Kbps
Width : 720 pixels
Height : 304 pixels
Display aspect ratio : 2.35:1
Frame rate mode : Constant
Frame rate : 24.000 fps
Color space : YUV
Chroma subsampling : 4:2:0
Bit depth : 8 bits
Scan type : Progressive
Bits/(Pixel*Frame) : 0.138
Stream size : 578 MiB (85%)
Writing library : x264 core 129
Encoding settings : cabac=1 / ref=1 / deblock=1:0:0 / analyse=0x1:0x131 / me=dia / subme=2 / psy=1 / psy_rd=1.00:0.00 / mixed_ref=0 / me_range=16 / chroma_me=1 / trellis=0 / 8x8dct=0 / cqm=0 / deadzone=21,11 / fast_pskip=1 / chroma_qp_offset=0 / threads=4 / lookahead_threads=1 / sliced_threads=0 / nr=0 / decimate=1 / interlaced=0 / bluray_compat=0 / constrained_intra=0 / bframes=0 / weightp=2 / keyint=250 / keyint_min=25 / scenecut=40 / intra_refresh=0 / rc_lookahead=40 / rc=abr / mbtree=1 / bitrate=726 / ratetol=1.0 / qcomp=0.60 / qpmin=10 / qpmax=51 / qpstep=4 / ip_ratio=1.41 / aq=1:1.00
Tagged date : UTC 2015-12-19 05:57:13
Audio
ID : 2
Format : AAC
Format/Info : Advanced Audio Codec
Format profile : LC
Codec ID : 40
Duration : 1h 51mn
Duration_FirstFrame : 70ms
Bit rate mode : Constant
Bit rate : 128 Kbps
Channel(s) : 2 channels
Channel positions : Front: L R
Sampling rate : 44.1 KHz
Compression mode : Lossy
Stream size : 102 MiB (15%)
Tagged date : UTC 2015-12-19 05:57:13

Скриншот c названием фильма

Скриншоты



Последний раз редактировалось: Bilol (2015-12-22 03:51), всего редактировалось 1 раз

Создавать темы 20-Дек-2015 22:13

[Профиль]  [ЛС] 

Страх

Стаж: 4 года

Сообщений: 1131

Симпатии: 448

Счастливого Рождества / Merry Christmas/ Joyeux Noel (Кристиан Карион / Christian Carion) [2005 г., драма, мелодрама, военный, история, музыка, BDRip]
так как на выше указанной раздаче неделю не были, пока выдаю статус временный

Создавать темы 22-Дек-2015 01:15

[Профиль]  [ЛС] 
Показать сообщения:    
Ответить на тему

Текущее время: 17-Окт 11:03

Часовой пояс: UTC + 5



Вы не можете начинать темы
Вы не можете отвечать на сообщения
Вы не можете редактировать свои сообщения
Вы не можете удалять свои сообщения
Вы не можете голосовать в опросах
Вы не можете прикреплять файлы к сообщениям
Вы не можете скачивать файлы