Все люди лгут / Liars All (Брайан Брайтли) [2013, США, триллер, HDRip] (MVO)

Ответить на тему
 

lucky999 ®

Стаж: 2 года 3 месяца

Сообщений: 32

Симпатии: 43

--Все люди лгут / Liars All-- -Страна: США
Жанр: триллер
Год выпуска: 2013
]b]Продолжительность
: 01:31:44-Перевод: Профессиональный (многоголосый закадровый)
Режиссер: Брайан Брайтли
В ролях:Сара Пэкстон, Мэтт Лантер, Дэрин Брукс, Элис Эванс, Рэнди Уэйн, Джиллиан Зинсер, Торранс Кумбс, Тим Филлиппс, Тиффани Малхерон, Клер Скотт
Описание:В канун нового года в Лондоне группа друзей играет в провокационную игру, которая постепенно выходит из под контроля и заканчивается убийством. Несмотря на немедленное расследование дела полицией, истинный убийца остается неуловимым среди противоречивых показаний и скрытых мотивов. Ночь с откровениями и новоявленной близостью принимает неожиданный поворот, в результате чего получается взрывной результат, который изменит их жизнь навсегда.
Доп. информация:
сценарий: Брайан Брайтли
продюсер: Джеффри Аллард, Джои Кэри, Стефан Новиски, ...
оператор: Пол Садуриан
композитор: Стефен Лайт
художник: ЭлЭр Вайнбергер, Лорен Фахардо, Ноам Карл, ...
монтаж: Сюзанн Спенглер--IMDB рейтинг: 4.2/10
КиноПоиск рейтинг: 4.6/10--Качество видео: HDRip
Формат видео: AVI
Видео: XviD, 1366 Кбит/с, 720x304
Аудио: Dolby AC3 48000Hz 5ch 448kbps Русский
Аудио 1: Dolby AC3 48000Hz 5ch 448kbps английский

MediaInfo

General
Complete name : D:\torrent\Все люди лгут.avi
Format : AVI
Format/Info : Audio Video Interleave
File size : 1.45 GiB
Duration : 1h 31mn
Overall bit rate : 2 276 Kbps
Movie name : Все люди лгут / Liars All (2013)
Writing application : VirtualDubMod 1.5.10.2 (build 2540/release)
Writing library : VirtualDubMod build 2540/release
Copyright : miha2154
Video
ID : 0
Format : MPEG-4 Visual
Format profile : Advanced [email protected]
Format settings, BVOP : 1
Format settings, QPel : No
Format settings, GMC : No warppoints
Format settings, Matrix : Custom
Codec ID : XVID
Codec ID/Hint : XviD
Duration : 1h 31mn
Bit rate : 1 366 Kbps
Width : 720 pixels
Height : 304 pixels
Display aspect ratio : 2.35:1
Frame rate : 23.976 fps
Color space : YUV
Chroma subsampling : 4:2:0
Bit depth : 8 bits
Scan type : Progressive
Compression mode : Lossy
Bits/(Pixel*Frame) : 0.260
Stream size : 894 MiB (60%)
Writing library : XviD 65
Audio #1
ID : 1
Format : AC-3
Format/Info : Audio Coding 3
Mode extension : CM (complete main)
Format settings, Endianness : Big
Codec ID : 2000
Duration : 1h 31mn
Bit rate mode : Constant
Bit rate : 448 Kbps
Channel(s) : 6 channels
Channel(s)_Original : 5 channels
Channel positions : Front: L C R, Side: L R
Sampling rate : 48.0 KHz
Compression mode : Lossy
Stream size : 293 MiB (20%)
Alignment : Split accross interleaves
Interleave, duration : 42 ms (1.00 video frame)
Interleave, preload duration : 500 ms
Title : Профессиональный (многоголосый закадровый) Кинолюкс
Audio #2
ID : 2
Format : AC-3
Format/Info : Audio Coding 3
Mode extension : CM (complete main)
Format settings, Endianness : Big
Codec ID : 2000
Duration : 1h 31mn
Bit rate mode : Constant
Bit rate : 448 Kbps
Channel(s) : 6 channels
Channel positions : Front: L C R, Side: L R, LFE
Sampling rate : 48.0 KHz
Compression mode : Lossy
Stream size : 293 MiB (20%)
Alignment : Split accross interleaves
Interleave, duration : 42 ms (1.00 video frame)
Interleave, preload duration : 500 ms
Title : Английский

Скриншоты



Создавать темы 27-Дек-2015 12:07

[Профиль]  [ЛС] 
Показать сообщения:    
Ответить на тему

Текущее время: 14-Дек 22:02

Часовой пояс: UTC + 5



Вы не можете начинать темы
Вы не можете отвечать на сообщения
Вы не можете редактировать свои сообщения
Вы не можете удалять свои сообщения
Вы не можете голосовать в опросах
Вы не можете прикреплять файлы к сообщениям
Вы не можете скачивать файлы