Девушка возвращается одна ночью домой / A Girl Walks Home Alone at Night (Ана Лили Амирпур) [2014, США, ужасы, триллер, мелодрама, WEB-DLRip] (Janetta) (Sub Rus)

Ответить на тему
 

bbk ®

Стаж: 6 лет 11 месяцев

Сообщений: 435

Симпатии: 479

Девушка возвращается одна ночью домой / A Girl Walks Home Alone at Night
Страна: США
Жанр: ужасы, триллер, мелодрама
Год выпуска: 2014
Продолжительность: 01:40:38
Перевод: Субтитры (вшитые), Русские (Janetta)
Оригинальная аудиодорожка: Персидский
Режиссер: Ана Лили Амирпур
В ролях: Шейла Ванд, Араш Маранди, Маршалл Манеш, Можан Марно, Амин Наземзадех, Роум Шаданлу, Милад Эхбали, Реза Сиксо Сафаи, Рэй Харатиан, Педж Вахдат
Описание: События разворачиваются в вымышленном иранском городе, полном проституции и преступлений, смерти и одиночества. Здесь живут вампиры, проститутки, наркоманы, сутенеры, ростовщики и, конечно же, собственный иранский Джеймс Дин.
 
Качество видео: WEB-DLRip 720p
Формат видео: AVI
Видео: XviD, 1258 Кбит/с, 1280x528, 23.976 fps
Аудио: MP3, 2 ch, 128 Кбит/с

MediaInfo

General
    Complete name : A.Girl.Walks.Home.Alone.at.Night.2014.720p.WEB-DL.avi
    Format : AVI
    Format/Info : Audio Video Interleave
    File size : 1 005 MiB
    Duration : 1h 40mn
    Overall bit rate : 1 396 Kbps
    Writing application : VirtualDubMod 1.5.10.2 (build 2542/release)
    Writing library : VirtualDubMod build 2542/release
  Video #0
    ID : 0
    Format : MPEG-4 Visual
    Format profile : Advanced [email protected]
    Format settings, BVOP : 1
    Format settings, QPel : No
    Format settings, GMC : No warppoints
    Format settings, Matrix : Default (H.263)
    Muxing mode : Packed bitstream
    Codec ID : XVID
    Codec ID/Hint : XviD
    Duration : 1h 40mn
    Bit rate : 1 258 Kbps
    Width : 1 280 pixels
    Height : 528 pixels
    Display aspect ratio : 2.40:1
    Frame rate : 23.976 fps
    Color space : YUV
    Chroma subsampling : 4:2:0
    Bit depth : 8 bits
    Scan type : Progressive
    Compression mode : Lossy
    Bits/(Pixel*Frame) : 0.078
    Stream size : 906 MiB (90%)
    Writing library : XviD 64
  Audio #1
    ID : 1
    Format : MPEG Audio
    Format version : Version 1
    Format profile : Layer 3
    Codec ID : 55
    Codec ID/Hint : MP3
    Duration : 1h 40mn
    Bit rate mode : Constant
    Bit rate : 128 Kbps
    Channel(s) : 2 channels
    Sampling rate : 44.1 KHz
    Compression mode : Lossy
    Stream size : 92.1 MiB (9%)
    Alignment : Split accross interleaves
    Interleave, duration : 42 ms (1.00 video frame)
    Interleave, preload duration : 500 ms
    Writing library : LAME3.98.4

Скриншот c названием фильма

Скриншоты

Создавать темы 26-Мар-2015 13:27

[Профиль]  [ЛС] 

TOR

Стаж: 4 года 11 месяцев

Сообщений: 4

no

Создавать темы 03-Фев-2016 19:13

[Профиль]  [ЛС] 

bbk ®

Стаж: 6 лет 11 месяцев

Сообщений: 435

Симпатии: 479

966531no
нету у меня уже удалил

Создавать темы 03-Фев-2016 19:30

[Профиль]  [ЛС] 
Показать сообщения:    
Ответить на тему

Текущее время: 24-Окт 16:19

Часовой пояс: UTC + 5



Вы не можете начинать темы
Вы не можете отвечать на сообщения
Вы не можете редактировать свои сообщения
Вы не можете удалять свои сообщения
Вы не можете голосовать в опросах
Вы не можете прикреплять файлы к сообщениям
Вы не можете скачивать файлы