Робин Гуд / Robin Hood (Ридли Скотт/ Ridley Scott) [2010, США, Исторический, Боевик, Драма, Приключения, BDRip] (Dub)

Ответить на тему
 

Чингиз ®

Стаж: 5 лет 8 месяцев

Сообщений: 37

Симпатии: 20

Робин Гуд / Robin Hood
Страна: США
Жанр: Исторический, Боевик, Драма, Приключения
Год выпуска: 2010
Продолжительность: 02:07:34
Перевод: Профессиональный (дублированный)
Cубтитры: нет
Режиссер: Ридли Скотт/ Ridley Scott
В ролях: Рассел Кроу, Кейт Бланшетт, Макс Фон Сюдов, Уильям Хёрт, Марк Стронг, Оскар Айзек, Айлин Эткинс, Марк Эдди, Мэттью Макфэдиен, Дэнни Хьюстон, Кевин Дюран
Описание: Эта картина - предыстория знаменитой легенды о Робин Гуде. Король Англии Ричард I Львиное Сердце во главе армии отправляется в крестовый поход. В числе воинов - будущий командир воров из Шервудского Леса. После гибели правителя Робин возвращается на родину, где возглавляет антифранцузское сопротивление. Но, сражаясь с внешним врагом, герой приобретает врага внутреннего в лице нового короля Джона. Обстоятельства вынуждают его бежать с небольшой группой верных людей в Шервудский лес. Так начинается легенда.
Качество видео: BDRip
Формат видео: AVI
Видео: 720 x 304; 23.976 fps; 1838 kbps; 0.35 bit/pixel
Аудио: 48 kHz; 5.1 ch; 384.00 kbps

Доп. информация

Ранее предполагалось что Рассел Кроу сыграет и Робина Гуда, и шерифа Ноттингема.
Выставленный на открытую продажу сценарий Этана Рейффа и Сайруса Вориса под названием «Ноттингем» привлек внимание доброй половины студий Голливуда. За право поставить по нему фильм боролись New Line Cinema, Warner Bros., Sony, New Regency Enterprises и DreamWorks, но победу праздновала в итоге Universal Pictures.
Специально для переработки сценария был приглашён имеющий большой опыт подобной работы Брайан Хелгеленд.
Претендентами на место режиссера картины помимо Ридли Скотта были также Брайан Сингер, Джон Тартелтауб и Сэм Рэйми.
Продюсеры фильма планировали воссоздать лондонский Тауэр в Карнарвоне, в Северном Уэльсе, но позже отказались от этой идеи и предпочли использование компьютерной графики.
Первоначальной датой выхода в прокат было запланировано 26 ноября 2009 года, но задержки с началом съёмок и переработкой сценария вынудили перенести релиз на май 2010 года.
В возрасте 45 лет Рассел Кроу стал самым возрастным актером, игравшим когда-либо этого легендарного персонажа. Шону Коннери было без малого 45, когда он сыграл немолодого уже Робин Гуда в картине «Робин и Мэриан» (1976).
Айлин Эткинс заменила выбывшую из проекта Ванессу Редгрейв.
На роль Девы Мэриан претендовали Скарлетт Йоханнсон, Эмили Блант, Анджелина Джоли, Зуи Дешанель и Натали Портман, но выбор был сделан в пользу Сиенны Миллер. Позднее актриса выбыла из проекта и основными соискательницами выступили теперь Кейт Уинслет, Кейт Бланшетт и Рэйчел Вайц. Первая из них отклонила предложение, а вторая быстро ответила согласием.
Декорации Ноттингема насчитывают более 50 строений. Также недалеко от студии возвели французский замок высотой 20 м.
Единственным актёром на площадке, которому не требовались уроки верховой езды был Рассел Кроу. На собственном ранчо в Австралии он постоянно в ней практикуется.
Прежде, чем было объявлено, что играть Робина Гуда будет Рассел Кроу, на главную роль претендовали Кристиан Бэйл и Сэм Райли.
На роль Короля Ричарда претендовал Рис Иванс, но получил ее Дэнни Хьюстон.

MediaInfo

General
Complete name : C:\Кино\Торрент\Robin.Gud.2010.TC.RUS.BDRip.XviD.AC3.-HQ-ViDEO.avi
Format : AVI
Format/Info : Audio Video Interleave
Format profile : OpenDML
File size : 2.18 GiB
Duration : 2h 20mn
Overall bit rate : 2 229 Kbps
Movie name : Robin Hood [Theatrical Cut] (2010)
Director : MECHANICAL ENGINEER (Blu-Ray CEE 1080p)
Writing application : VirtualDubMod 1.5.10.2 (build 2542/release)
Copyright : HQ-ViDEO (www.hq-video.ru)
Comment : 19.10.2010
Video
ID : 0
Format : MPEG-4 Visual
Format profile : Advanced [email protected]
Format settings, BVOP : 1
Format settings, QPel : No
Format settings, GMC : No warppoints
Format settings, Matrix : Custom
Codec ID : XVID
Codec ID/Hint : XviD
Duration : 2h 20mn
Bit rate : 1 833 Kbps
Width : 720 pixels
Height : 304 pixels
Display aspect ratio : 2.35:1
Frame rate : 23.976 fps
Color space : YUV
Chroma subsampling : 4:2:0
Bit depth : 8 bits
Scan type : Progressive
Compression mode : Lossy
Bits/(Pixel*Frame) : 0.349
Stream size : 1.80 GiB (82%)
Writing library : XviD 1.2.1 (UTC 2008-12-04)
Audio
ID : 1
Format : AC-3
Format/Info : Audio Coding 3
Mode extension : CM (complete main)
Codec ID : 2000
Duration : 2h 20mn
Bit rate mode : Constant
Bit rate : 384 Kbps
Channel(s) : 6 channels
Channel positions : Front: L C R, Side: L R, LFE
Sampling rate : 48.0 KHz
Bit depth : 16 bits
Compression mode : Lossy
Stream size : 385 MiB (17%)
Alignment : Split accross interleaves
Interleave, duration : 42 ms (1.00 video frame)
Interleave, preload duration : 500 ms

Скриншоты



Последний раз редактировалось: Чингиз (2016-02-09 11:07), всего редактировалось 1 раз

Создавать темы 09-Фев-2016 10:52

[Профиль]  [ЛС] 
Показать сообщения:    
Ответить на тему

Текущее время: 19-Окт 10:40

Часовой пояс: UTC + 5



Вы не можете начинать темы
Вы не можете отвечать на сообщения
Вы не можете редактировать свои сообщения
Вы не можете удалять свои сообщения
Вы не можете голосовать в опросах
Вы не можете прикреплять файлы к сообщениям
Вы не можете скачивать файлы