Жажда мести / Khoon Bhari Maang (Ракеш Рошан / Rakesh Roshan) [1988, Индия, Mелодрама, DVDRip] (Dub)

Ответить на тему
 

Baxa2009 ®

Стаж: 5 лет 8 месяцев

Сообщений: 42

Симпатии: 15

Жажда мести / Khoon Bhari Maang- -Страна: Индия
Жанр: Mелодрама
Год выпуска: 1988
Продолжительность: 02:14:45
Перевод: Профессиональный (полное дублирование)
Cубтитры: нет-Режиссер: Ракеш Рошан / Rakesh Roshan-В ролях: Рекха, Кабир Беди, Сону Валия, Кадер Кхан, А.К. Хангал, П. Джайрадж, Сулочана Латкар, Сулабха Дешпанде, Викас Ананд-Описание: Хозяин крупной торговой фирмы ловит своего управляющего на незаконных финансовых махинациях. Тот, боясь судебного расследования, убивает хозяина. У него остается дочь с двумя маленькими детьми. Она в отчаянии.
Ни мужа (он также погиб при загадочных обстоятельствах), ни отца, никакой опоры. Хитрый управляющий предлагает ей в мужья своего племянника.
Тот, изображая благородного, пытается завладеть миллионным состоянием... Но жестокой будет расплата за все страдания, боль и отчаяние.
--Качество видео: DVDRip
Формат видео: AVI
Видео: Video: DivX 5 720x384 25fps 1 255 Kbps
Аудио: Audio: Dolby AC3 48000Hz stereo 192kbps
-

MediaInfo

General
Complete name Khoon Bhari Maang.avi
Format : AVI
Format/Info : Audio Video Interleave
File size : 1.37 GiB
Duration : 2h 14mn
Overall bit rate : 1 454 Kbps
Writing application : VirtualDubMod 1.5.4.1 (build 2178/release)
Writing library : VirtualDubMod build 2178/release
Video
ID : 0
Format : MPEG-4 Visual
Format settings, BVOP : Yes
Format settings, QPel : No
Format settings, GMC : No warppoints
Format settings, Matrix : Default (H.263)
Codec ID : DX50
Codec ID/Hint : DivX 5
Duration : 2h 14mn
Bit rate : 1 255 Kbps
Width : 720 pixels
Height : 384 pixels
Display aspect ratio : 1.85:1
Frame rate : 25.000 fps
Color space : YUV
Chroma subsampling : 4:2:0
Bit depth : 8 bits
Scan type : Progressive
Compression mode : Lossy
Bits/(Pixel*Frame) : 0.182
Stream size : 1.18 GiB (86%)
Writing library : DivX 5.1.1 (Maupiti) (UTC 2003-11-19)
Audio
ID : 1
Format : AC-3
Format/Info : Audio Coding 3
Mode extension : CM (complete main)
Format settings, Endianness : Big
Codec ID : 2000
Duration : 2h 14mn
Bit rate mode : Constant
Bit rate : 192 Kbps
Channel(s) : 2 channels
Channel positions : Front: L R
Sampling rate : 48.0 KHz
Bit depth : 16 bits
Compression mode : Lossy
Stream size : 185 MiB (13%)
Alignment : Split accross interleaves
Interleave, duration : 96 ms (2.40 video frames)
Interleave, preload duration : 96 ms
Language : Russian
--

Скриншоты







-

Создавать темы 08-Апр-2015 21:07

[Профиль]  [ЛС] 

papa_p-c

Стаж: 5 лет 1 месяц

Сообщений: 2

Дайте скачать

Создавать темы 14-Фев-2016 12:44

[Профиль]  [ЛС] 
Показать сообщения:    
Ответить на тему

Текущее время: 17-Дек 03:42

Часовой пояс: UTC + 5



Вы не можете начинать темы
Вы не можете отвечать на сообщения
Вы не можете редактировать свои сообщения
Вы не можете удалять свои сообщения
Вы не можете голосовать в опросах
Вы не можете прикреплять файлы к сообщениям
Вы не можете скачивать файлы