007: СПЕКТР / Spectre (Сэм Мендес) [2015, США, Боевик, триллер, приключения, HDRip] [Лицензия]

Ответить на тему
 

ruhal ®

Стаж: 2 года 8 месяцев

Сообщений: 1181

Симпатии: 1836

- -007: СПЕКТР / Spectre- - Страна: США
Жанр: Боевик, триллер, приключения
Год выпуска: 2015
Продолжительность: 02:19:32-Перевод: Профессиональный (дублированный) [Лицензия]
Cубтитры: Русские вшитые на иностранный язык-Режиссер: Сэм Мендес-В ролях: Дэниэл Крэйг, Кристоф Вальц, Леа Сейду, Рэйф Файнс,
Моника Беллуччи, Бен Уишоу, Наоми Харрис, Дэйв Батиста, Эндрю Скотт, Рори Киннер-Описание: Зашифрованное послание из неизвестного источника выводит Бонда на след зловещей глобальной организации
под кодовым названием СПЕКТР, в то время как М пытается спасти секретную разведывательную службу от ликвидации.-Качество видео: HDRip
Формат видео: AVI
Видео: Xvid 720x304 23.976fps 963kbps
Аудио: Dolby AC3 48000Hz 6ch 448kbps
-

MediaInfo

General
Complete name : E:\Films\Spectre.2015.HDRip.1.46.avi
Format : AVI
Format/Info : Audio Video Interleave
File size : 1.47 GiB
Duration : 2h 28mn
Overall bit rate : 1 421 Kbps
Writing application : VirtualDubModRus 1.5.10.2 (build 2542/release)
Writing library : VirtualDubMod build 2542/release
Video
ID : 0
Format : MPEG-4 Visual
Format profile : Advanced [email protected]
Format settings, BVOP : 1
Format settings, QPel : No
Format settings, GMC : No warppoints
Format settings, Matrix : Custom
Codec ID : XVID
Codec ID/Hint : XviD
Duration : 2h 28mn
Bit rate : 964 Kbps
Width : 720 pixels
Height : 304 pixels
Display aspect ratio : 2.35:1
Frame rate : 23.976 fps
Color space : YUV
Chroma subsampling : 4:2:0
Bit depth : 8 bits
Scan type : Progressive
Compression mode : Lossy
Bits/(Pixel*Frame) : 0.184
Stream size : 1 021 MiB (68%)
Writing library : XviD 73
Audio
ID : 1
Format : AC-3
Format/Info : Audio Coding 3
Mode extension : CM (complete main)
Format settings, Endianness : Big
Codec ID : 2000
Duration : 2h 28mn
Bit rate mode : Constant
Bit rate : 448 Kbps
Channel(s) : 6 channels
Channel positions : Front: L C R, Side: L R, LFE
Sampling rate : 48.0 KHz
Bit depth : 16 bits
Compression mode : Lossy
Stream size : 475 MiB (32%)
Alignment : Split accross interleaves
Interleave, duration : 42 ms (1.00 video frame)
Interleave, preload duration : 500 ms

Скриншоты


Создавать темы 12-Фев-2016 12:23

[Профиль]  [ЛС] 

Powered by GMC

Стаж: 2 года 1 месяц

Сообщений: 202

Симпатии: 31

Золото когда будет?? После 1500 скачки??

Комментарий от ruhal


500 набрать бы, так что ждите

Создавать темы 16-Фев-2016 19:37

[Профиль]  [ЛС] 

Powered by GMC

Стаж: 2 года 1 месяц

Сообщений: 202

Симпатии: 31

967667Золото когда будет?? После 1500 скачки??
ЖДУ aa

Создавать темы 16-Фев-2016 20:20

[Профиль]  [ЛС] 

tyama89

Стаж: 5 лет 8 месяцев

Сообщений: 35

Симпатии: 3

почему не проверяете фильм перед тем как залить? звук слетел

Комментарий от ruhal


А как у фильма может звук слететь?(Если ты конечно не баловался с ним в видео редакторе). А фильмы мы проверяем, чай не дубы

Создавать темы 24-Фев-2016 08:11

[Профиль]  [ЛС] 

tyama89

Стаж: 5 лет 8 месяцев

Сообщений: 35

Симпатии: 3

звук и картинка не совпадают, я это имел ввиду

Создавать темы 25-Фев-2016 07:51

[Профиль]  [ЛС] 

tyama89

Стаж: 5 лет 8 месяцев

Сообщений: 35

Симпатии: 3

странно, на компе и на старом телеке звук норм, а на новом телеке звук отстает. сорри за наезд, фильм и звук хорошие.

Комментарий от ruhal


Бывает

Создавать темы 25-Фев-2016 15:34

[Профиль]  [ЛС] 
Показать сообщения:    
Ответить на тему

Текущее время: 18-Дек 23:42

Часовой пояс: UTC + 5



Вы не можете начинать темы
Вы не можете отвечать на сообщения
Вы не можете редактировать свои сообщения
Вы не можете удалять свои сообщения
Вы не можете голосовать в опросах
Вы не можете прикреплять файлы к сообщениям
Вы не можете скачивать файлы