30 свиданий (Татьяна Капитан) [2016, Комедия, Мелодрама, WEB-DLRip]

Ответить на тему
 

inkus ®

Стаж: 7 лет 6 месяцев

Сообщений: 50

Симпатии: 39

30 свиданий
Жанр: Комедия, Мелодрама
Год выпуска: 2016
Продолжительность: 01:28:36
Режиссёр: Татьяна Капитан
В ролях: Наталия Медведева, Никита Панфилов, Дмитрий Богдан, Ирина Гринёва, Ян Цапник, Гарик Харламов, Никита Джигурда, Ольга Тумайкина, Данила Якушев, Дарина Грибоедова
Описание: На что только не пойдешь, чтобы обрести счастье?! Невезучая Даша верит в найденный в интернете способ — в течение месяца сходить на 30 свиданий, а затем мужчина твоей мечты сам найдет тебя. Только остаться бы живой после встреч с самыми безумными кавалерами и пробовать разглядеть среди них того самого.
Качество видео: WEB-DLRip
Формат видео: AVI
Видео: XviD, 1812 kb/s, 720x304
Аудио: AC3, 384 kb/s (6 ch)

MediaInfo

Общее
Полное имя : F:\1 мои раздачи торент\30 свиданий.avi
Формат : AVI
Формат/Информация : Audio Video Interleave
Размер файла : 1,36 Гбайт
Продолжительность : 1 ч. 28 м.
Общий поток : 2206 Кбит/сек
Программа кодирования : VirtualDubMod 1.5.10.3 | www.virtualdub-fr.org || (build 2550/release)
Библиотека кодирования : VirtualDubMod build 2550/release
Видео
Идентификатор : 0
Формат : MPEG-4 Visual
Профиль формата : Advanced [email protected]
Параметр BVOP формата : 2
Параметр QPel формата : Нет
Параметр GMC формата : Без точки перехода
Параметр матрицы формата : Default (MPEG)
Идентификатор кодека : XVID
Идентификатор кодека/Подсказка : XviD
Продолжительность : 1 ч. 28 м.
Битрейт : 1812 Кбит/сек
Ширина : 720 пикселей
Высота : 304 пикселя
Соотношение сторон : 2,35:1
Частота кадров : 25,000 кадров/сек
Цветовое пространство : YUV
Субдискретизация насыщенности : 4:2:0
Битовая глубина : 8 бит
Тип развёртки : Прогрессивная
Метод сжатия : С потерями
Бит/(Пиксели*Кадры) : 0.331
Размер потока : 1,12 Гбайт (82%)
Библиотека кодирования : XviD 1.2.1 (UTC 2008-12-04)
Аудио
Идентификатор : 1
Формат : AC-3
Формат/Информация : Audio Coding 3
Расширение режима : CM (complete main)
Параметр Endianness формата : Big
Идентификатор кодека : 2000
Продолжительность : 1 ч. 28 м.
Вид битрейта : Постоянный
Битрейт : 384 Кбит/сек
Каналы : 6 каналов
Расположение каналов : Front: L C R, Side: L R, LFE
Частота : 48,0 КГц
Битовая глубина : 16 бит
Метод сжатия : С потерями
Размер потока : 243 Мбайт (17%)
Выравнивание : Разделение по промежуткам
Продолжительность промежутка : 40 мс. (1,00 видеокадр)
Время предзагрузки промежутка : 500 мс.

Скриншоты



Создавать темы 26-Фев-2016 20:12

[Профиль]  [ЛС] 

Mr.Blackstar

Стаж: 1 год 11 месяцев

Сообщений: 10

Симпатии: 3

ab

Создавать темы 27-Фев-2016 18:43

[Профиль]  [ЛС] 
Показать сообщения:    
Ответить на тему

Текущее время: 22-Окт 11:40

Часовой пояс: UTC + 5



Вы не можете начинать темы
Вы не можете отвечать на сообщения
Вы не можете редактировать свои сообщения
Вы не можете удалять свои сообщения
Вы не можете голосовать в опросах
Вы не можете прикреплять файлы к сообщениям
Вы не можете скачивать файлы