Голодные игры: Сойка-пересмешница. Часть II / The Hunger Games: Mockingjay - Part 2 (Френсис Лоуренс) [2015, США, Германия, фантастика, приключения, BDRip] [iTunes]

Ответить на тему
 

ruhal ®

Стаж: 2 года 8 месяцев

Сообщений: 1181

Симпатии: 1836

-Голодные игры: Сойка-пересмешница. Часть II / The Hunger Games: Mockingjay - Part 2- -Страна: США, Германия
Жанр: фантастика, приключения
Год выпуска: 2015
Продолжительность: 02:16:57-Перевод: Профессиональный (дублированный) iTunes
Cубтитры: нет-Режиссер: Френсис Лоуренс-В ролях: Дженнифер Лоуренс, Джош Хатчерсон, Лиам Хемсворт, Вуди Харрельсон,
Дональд Сазерленд, Филип Сеймур Хоффман, Джулианна Мур, Уиллоу Шилдс, Сэм Клафлин, Элизабет Бэнкс,
Махершала Али, Джена Мэлоун, Джеффри Райт, Паула Малкомсон, Стэнли Туччи,
Натали Дормер, Ивэн Росс, Элден Хенсон, Уэс Чэтэм, Эжени Бондюран-Описание: В Панеме начинается гражданская война против власти Капитолия. Китнисс Эвердин является символом Революции,
однако сама себя не осознает как мессия повстанцев. Заручившись помощью близких друзей, Китнисс отправляется в Капитолий.
Друзья готовы рискнуть своими жизнями, чтобы освободить граждан Панема, а Китнисс предпринимает попытку убить президента Сноу,
который, в свою очередь, одержим идеей навсегда покончить с героиней Дистрикта 12. Но победа повстанцев имеет горький вкус,
и Китнисс ждёт гораздо более трудное испытание, чем смертельные ловушки арены Голодных игр.-Качество видео: BDRip
Формат видео: AVI
Видео: Xvid 720x304 23.976fps 1325kbps
Аудио: Dolby AC3 48000Hz 6ch 384kbps
-

MediaInfo

General
Complete name : E:\Films\Golodnye.Igry.Sojka.Peresmeshnica.Chast.II.2015.D.BDRip.avi
Format : AVI
Format/Info : Audio Video Interleave
File size : 1.64 GiB
Duration : 2h 16mn
Overall bit rate : 1 719 Kbps
Movie name : Golodnye.Igry.Sojka.Peresmeshnica.Chast.II.2015.D.BDRip.1.46Gb_by_Twi7ter
Director : Twi7ter
Genre : Fantasy/Adventure
Writing application : VirtualDubModRus 1.5.10.2 (build 2542/release)
Writing library : VirtualDubMod build 2542/release
Original source form/Name : Movie
Video
ID : 0
Format : MPEG-4 Visual
Format profile : Advanced [email protected]
Format settings, BVOP : 2
Format settings, QPel : No
Format settings, GMC : No warppoints
Format settings, Matrix : Custom
Codec ID : XVID
Codec ID/Hint : XviD
Duration : 2h 16mn
Bit rate : 1 326 Kbps
Width : 720 pixels
Height : 304 pixels
Display aspect ratio : 2.35:1
Frame rate : 23.976 fps
Color space : YUV
Chroma subsampling : 4:2:0
Bit depth : 8 bits
Scan type : Progressive
Compression mode : Lossy
Bits/(Pixel*Frame) : 0.253
Stream size : 1.27 GiB (77%)
Writing library : XviD 73
Audio
ID : 1
Format : AC-3
Format/Info : Audio Coding 3
Mode extension : CM (complete main)
Format settings, Endianness : Big
Codec ID : 2000
Duration : 2h 16mn
Bit rate mode : Constant
Bit rate : 384 Kbps
Channel(s) : 6 channels
Channel positions : Front: L C R, Side: L R, LFE
Sampling rate : 48.0 KHz
Bit depth : 16 bits
Compression mode : Lossy
Stream size : 376 MiB (22%)
Alignment : Split accross interleaves
Interleave, duration : 42 ms (1.00 video frame)
Interleave, preload duration : 500 ms

Скриншот c названием фильма

Скриншоты



Создавать темы 25-Мар-2016 21:50

[Профиль]  [ЛС] 

aziz132516

Стаж: 4 года 10 месяцев

Сообщений: 9

ruhal, ДАЙ СКОРОСТЬ

Комментарий от ruhal


Я этот фильм удалил давно

Создавать темы 02-Мар-2017 10:36

[Профиль]  [ЛС] 

HUGA

Стаж: 7 лет 7 месяцев

Сообщений: 8

Дайте раздачую Мне осталось 2% докачать

Создавать темы 26-Апр-2017 17:23

[Профиль]  [ЛС] 
Показать сообщения:    
Ответить на тему

Текущее время: 16-Дек 21:38

Часовой пояс: UTC + 5



Вы не можете начинать темы
Вы не можете отвечать на сообщения
Вы не можете редактировать свои сообщения
Вы не можете удалять свои сообщения
Вы не можете голосовать в опросах
Вы не можете прикреплять файлы к сообщениям
Вы не можете скачивать файлы