Папа (Владимир Машков) [2004, Драма, DVDRip]

Ответить на тему
 

teddi ®

Стаж: 1 год 7 месяцев

Сообщений: 87

Симпатии: 46

Папа
Жанр: Драма
Год выпуска: 2004
Продолжительность: 01:34:07
Режиссёр: Владимир Машков
В ролях: Владимир Машков, Егор Бероев, Андрей Розендент, Сергей Дрейден, Ксения Лаврова-Глинка, Ольга Красько, Лидия Пахомова, Ольга Мирошникова, Ксения Баркалова, Анатолий Васильев
Описание: Все, чем живет Абрам Шварц — его талантливый сын. И когда он становится лучшим учеником Консерватории, отец едет в Москву посмотреть на своего мальчика в минуты его славы. Но сын стыдится его.
Качество видео: DVDRip
Формат видео: AVI
Видео: Xvid 720x384 25fps
Аудио: Dolby AC3 48000Hz 6ch 448kbps

MediaInfo

Общее
Полное имя : D:\p2p\in\Papa.2004.avi
Формат : AVI
Формат/Информация : Audio Video Interleave
Размер файла : 1,46 Гбайт
Продолжительность : 1 ч. 34 м.
Общий поток : 2218 Кбит/сек
Режиссёр : zim2001
Программа кодирования : VirtualDubMod 1.5.10.2 (build 2540/release)
Видео
Идентификатор : 0
Формат : MPEG-4 Visual
Профиль формата : Advanced [email protected]
Параметр BVOP формата : 2
Параметр QPel формата : Нет
Параметр GMC формата : Без точки перехода
Параметр матрицы формата : Выборочная
Идентификатор кодека : XVID
Идентификатор кодека/Подсказка : XviD
Продолжительность : 1 ч. 34 м.
Битрейт : 1760 Кбит/сек
Ширина : 720 пикселей
Высота : 384 пикселя
Соотношение сторон : 1,85:1
Частота кадров : 25,000 кадров/сек
Цветовое пространство : YUV
Субдискретизация насыщенности : 4:2:0
Битовая глубина : 8 бит
Тип развёртки : Прогрессивная
Метод сжатия : С потерями
Бит/(Пиксели*Кадры) : 0.255
Размер потока : 1,16 Гбайт (79%)
Библиотека кодирования : XviD 1.2.1 (UTC 2008-12-04)
Аудио
Идентификатор : 1
Формат : AC-3
Формат/Информация : Audio Coding 3
Расширение режима : CM (complete main)
Параметр Endianness формата : Big
Идентификатор кодека : 2000
Продолжительность : 1 ч. 34 м.
Вид битрейта : Постоянный
Битрейт : 448 Кбит/сек
Каналы : 6 каналов
Расположение каналов : Front: L C R, Side: L R, LFE
Частота : 48,0 КГц
Частота кадров : 31,250 кадров/сек (1536 spf)
Метод сжатия : С потерями
Размер потока : 302 Мбайт (20%)
Выравнивание : Разделение по промежуткам
Продолжительность промежутка : 40 мс. (1,00 видеокадр)
Время предзагрузки промежутка : 500 мс.

Скриншот c названием фильма

Скриншоты



Последний раз редактировалось: teddi (2016-03-30 05:58), всего редактировалось 1 раз

Создавать темы 30-Мар-2016 00:34

[Профиль]  [ЛС] 
Показать сообщения:    
Ответить на тему

Текущее время: 24-Ноя 21:50

Часовой пояс: UTC + 5



Вы не можете начинать темы
Вы не можете отвечать на сообщения
Вы не можете редактировать свои сообщения
Вы не можете удалять свои сообщения
Вы не можете голосовать в опросах
Вы не можете прикреплять файлы к сообщениям
Вы не можете скачивать файлы