Последний охотник на ведьм / The Last Witch Hunter (Брек Эйснер) [2015, США, Китай, Канада, Фэнтези, боевик, приключения, WEB-DLRip] (Dub) iTunes

Ответить на тему
 

mp1988 ®

Стаж: 6 лет 10 месяцев

Сообщений: 607

Симпатии: 971

Последний охотник на ведьм / The Last Witch Hunter
Страна: США, Китай, Канада
Жанр: Фэнтези, боевик, приключения
Год выпуска: 2015
Продолжительность: 01:46:26
Перевод: Профессиональный (дублированный) iTunes
Cубтитры: нет
Режиссер: Брек Эйснер
В ролях: Вин Дизель, Роуз Лесли, Элайджа Вуд, Оулавюр Дарри Оулафссон, Рина Оуэн, Юли Энгельбрехт, Майкл Кейн, Джозеф Гилган, Исаак Де Банколе, Майкл Халсли
Описание: Современный мир скрывает множество секретов, но самым удивительным из них является то, что ведьмы до сих пор живут среди нас. Это злобные сверхъестественные существа, чья цель — наслать на мир смертоносную чуму. Армии охотников на ведьм сражались с ними на протяжении многих веков. В наши дни остался всего лишь один охотник на ведьм, Колдер, которому однажды удалось убить всемогущую королеву ведьм. Но Колдер еще не знает, что королева воскресла и жаждет отомстить своему убийце…
Качество видео: WEB-DLRip
Формат видео: AVI
Видео: XviD, 1563 Кбит/с, 720x400
Аудио: AC3, 6 ch, 384 Кбит/с

MediaInfo

Формат : AVI
Формат/Информация : Audio Video Interleave
Размер файла : 1,45 Гбайт
Продолжительность : 1 ч. 46 м.
Общий поток : 1956 Кбит/сек
Программа кодирования : VirtualDubMod 1.5.10.2 (build 2540/release)
Библиотека кодирования : VirtualDubMod build 2540/release
Видео
Идентификатор : 0
Формат : MPEG-4 Visual
Профиль формата : Advanced [email protected]
Параметр BVOP формата : 2
Параметр QPel формата : Нет
Параметр GMC формата : Без точки перехода
Параметр матрицы формата : Default (MPEG)
Идентификатор кодека : XVID
Идентификатор кодека/Подсказка : XviD
Продолжительность : 1 ч. 46 м.
Битрейт : 1563 Кбит/сек
Ширина : 720 пикселей
Высота : 400 пикселей
Соотношение сторон : 16:9
Частота кадров : 24,000 кадра/сек
Цветовое пространство : YUV
Субдискретизация насыщенности : 4:2:0
Битовая глубина : 8 бит
Тип развёртки : Прогрессивная
Метод сжатия : С потерями
Бит/(Пиксели*Кадры) : 0.226
Размер потока : 1,16 Гбайт (80%)
Библиотека кодирования : XviD 1.2.1 (UTC 2008-12-04)
Аудио
Идентификатор : 1
Формат : AC-3
Формат/Информация : Audio Coding 3
Расширение режима : CM (complete main)
Параметр Endianness формата : Big
Идентификатор кодека : 2000
Продолжительность : 1 ч. 46 м.
Вид битрейта : Постоянный
Битрейт : 384 Кбит/сек
Каналы : 6 каналов
Расположение каналов : Front: L C R, Side: L R, LFE
Частота : 48,0 КГц
Битовая глубина : 16 бит
Метод сжатия : С потерями
Размер потока : 292 Мбайт (20%)
Выравнивание : Разделение по промежуткам
Продолжительность промежутка : 42 мс. (1,00 видеокадр)
Время предзагрузки промежутка : 500 мс.

Скриншоты





Последний раз редактировалось: mp1988 (2016-02-22 21:47), всего редактировалось 1 раз

Создавать темы 22-Фев-2016 21:28

[Профиль]  [ЛС] 

Powered by GMC

Стаж: 2 года 1 месяц

Сообщений: 202

Симпатии: 31

оххх долго ждал! спс автору большоее! наслаждаемся!:)

Создавать темы 22-Фев-2016 21:51

[Профиль]  [ЛС] 

Kakcam

Стаж: 7 лет

Сообщений: 137

Симпатии: 7

что происходит с торентом?? какой я б фильм не качал, скорость у него такая маленькая, что я думаю скачать его с внешки)

Создавать темы 25-Фев-2016 16:30

[Профиль]  [ЛС] 

marvel

Стаж: 6 лет 10 месяцев

Сообщений: 50

Симпатии: 1

968369что происходит с торентом?? какой я б фильм не качал, скорость у него такая маленькая, что я думаю скачать его с внешки)
у меня точно такое происходит, скорости вообще нет, в чём проблема кто знает ?

Создавать темы 26-Фев-2016 15:27

[Профиль]  [ЛС] 

Powered by GMC

Стаж: 2 года 1 месяц

Сообщений: 202

Симпатии: 31

все дело в IP хоста

Создавать темы 26-Фев-2016 18:46

[Профиль]  [ЛС] 

Powered by GMC

Стаж: 2 года 1 месяц

Сообщений: 202

Симпатии: 31

надо настроить само Торрента

Создавать темы 26-Фев-2016 18:48

[Профиль]  [ЛС] 

Powered by GMC

Стаж: 2 года 1 месяц

Сообщений: 202

Симпатии: 31

968443
968369что происходит с торентом?? какой я б фильм не качал, скорость у него такая маленькая, что я думаю скачать его с внешки)
у меня точно такое происходит, скорости вообще нет, в чём проблема кто знает ?
Настройте Торрент Клиент вставте Ip ваш и всеееееееее!!! aa ay

Создавать темы 27-Фев-2016 22:07

[Профиль]  [ЛС] 

UZB0022

Стаж: 3 года 11 месяцев

Сообщений: 10

Симпатии: 1

968581
968443
968369что происходит с торентом?? какой я б фильм не качал, скорость у него такая маленькая, что я думаю скачать его с внешки)
у меня точно такое происходит, скорости вообще нет, в чём проблема кто знает ?
Настройте Торрент Клиент вставте Ip ваш и всеееееееее!!! aa ay
Такая-же проблема, можно подробнее для чайников. если с скриншотами буду очень признателен

Создавать темы 27-Фев-2016 22:23

[Профиль]  [ЛС] 

gold_man

Стаж: 8 лет 3 месяца

Сообщений: 162

Симпатии: 18

968581
968443
968369что происходит с торентом?? какой я б фильм не качал, скорость у него такая маленькая, что я думаю скачать его с внешки)
у меня точно такое происходит, скорости вообще нет, в чём проблема кто знает ?
Настройте Торрент Клиент вставте Ip ваш и всеееееееее!!! aa ay
а как это делается ? подскажите заранее спс al

Создавать темы 01-Мар-2016 19:59

[Профиль]  [ЛС] 

gold_man

Стаж: 8 лет 3 месяца

Сообщений: 162

Симпатии: 18

968452надо настроить само Торрента
можно через скриншот буду рад ))

Создавать темы 01-Мар-2016 20:00

[Профиль]  [ЛС] 

Powered by GMC

Стаж: 2 года 1 месяц

Сообщений: 202

Симпатии: 31

http://www.tas-ix.net/viewtopic.php?t=110108 тут все ясно! тередо и клиента настройте! и наслаждайтесь!

Создавать темы 01-Мар-2016 21:31

[Профиль]  [ЛС] 

Powered by GMC

Стаж: 2 года 1 месяц

Сообщений: 202

Симпатии: 31

скачайте все рары и как скрине показьвают так и настройте! а главное не забудте ИП должен быть ваш личной! а как узнать ИП! тут - https://2ip.ru/

Создавать темы 01-Мар-2016 21:38

[Профиль]  [ЛС] 

Powered by GMC

Стаж: 2 года 1 месяц

Сообщений: 202

Симпатии: 31

Золото непомешалобы

Создавать темы 08-Мар-2016 20:35

[Профиль]  [ЛС] 

леонид13

Стаж: 4 года 1 месяц

Сообщений: 20

Симпатии: 8

Дайте Скорости

Создавать темы 12-Апр-2016 20:32

[Профиль]  [ЛС] 
Показать сообщения:    
Ответить на тему

Текущее время: 16-Дек 21:39

Часовой пояс: UTC + 5



Вы не можете начинать темы
Вы не можете отвечать на сообщения
Вы не можете редактировать свои сообщения
Вы не можете удалять свои сообщения
Вы не можете голосовать в опросах
Вы не можете прикреплять файлы к сообщениям
Вы не можете скачивать файлы