8 лучших свиданий (Марюс Вайсберг) [2016, комедия, мелодрама, WEB-DLRip]

Ответить на тему
 

SANNYa ®

Стаж: 1 год 6 месяцев

Сообщений: 37

Симпатии: 14

8 лучших свиданий
Жанр: Комедия, Мелодрама
Год выпуска: 2016
Продолжительность: 01:33:54
Режиссёр: Марюс Вайсберг
В ролях: Владимир Зеленский, Вера Брежнева, Владимир Епифанцев, Евгений Кошевой, Сергей Казанин, Нино Кантария, Виктор Щур, Мария Ивакова
Описание: Одним солнечным днем преуспевающий владелец ветклиники Никита узнает, что неизлечимо болен. Он не подозревает, что это врачебная ошибка, и всерьез задумывается: кто же позаботится о его прекрасных жене, детях и бизнесе?.. И тут в его голову приходит мысль, что, как это ни прискорбно, кажется, пора подыскивать себе замену.
Так — после жесткого отбора — в дом семьи Соколовых под благовидным предлогом заселяется пожарный Илья, мужчина надежный и без вредных привычек. Никита начинает тайную операцию под кодовым названием «замена». А когда Никита узнает, что его здоровью ничто не угрожает, уже поздно!.. Распрекрасного Илью уже успели полюбить все, включая пациентов ветклиники. Борьба не на жизнь, а на любовь только начинается.
Качество видео: WEB-DLRip
Формат видео: AVI
Видео: XviD, 720x400, 25fps, 1715kbps, 0.238 Bits/(Pixel*Frame)
Аудио: AC3, 48kHz 6ch 384kbps

MediaInfo

General
Complete name : D:\Фильмы\8 лучших свиданий.avi
Format : AVI
Format/Info : Audio Video Interleave
File size : 1.37 GiB
Duration : 1h 32mn
Overall bit rate : 2 109 Kbps
Writing application : VirtualDubMod 1.5.10.3 | www.virtualdub-fr.org || (build 2550/release)
Writing library : VirtualDubMod build 2550/release
Video
ID : 0
Format : MPEG-4 Visual
Format profile : Advanced [email protected]
Format settings, BVOP : 2
Format settings, QPel : No
Format settings, GMC : No warppoints
Format settings, Matrix : Default (MPEG)
Codec ID : XVID
Codec ID/Hint : XviD
Duration : 1h 32mn
Bit rate : 1 715 Kbps
Width : 720 pixels
Height : 400 pixels
Display aspect ratio : 16:9
Frame rate : 25.000 fps
Color space : YUV
Chroma subsampling : 4:2:0
Bit depth : 8 bits
Scan type : Progressive
Compression mode : Lossy
Bits/(Pixel*Frame) : 0.238
Stream size : 1.11 GiB (81%)
Writing library : XviD 1.2.1 (UTC 2008-12-04)
Audio
ID : 1
Format : AC-3
Format/Info : Audio Coding 3
Mode extension : CM (complete main)
Format settings, Endianness : Big
Codec ID : 2000
Duration : 1h 32mn
Bit rate mode : Constant
Bit rate : 384 Kbps
Channel(s) : 6 channels
Channel positions : Front: L C R, Side: L R, LFE
Sampling rate : 48.0 KHz
Frame rate : 31.250 fps (1536 spf)
Compression mode : Lossy
Stream size : 255 MiB (18%)
Alignment : Split accross interleaves
Interleave, duration : 40 ms (1.00 video frame)
Interleave, preload duratio : 500 ms

Скриншоты



Создавать темы 19-Апр-2016 10:08

[Профиль]  [ЛС] 
Показать сообщения:    
Ответить на тему

Текущее время: 21-Окт 09:59

Часовой пояс: UTC + 5



Вы не можете начинать темы
Вы не можете отвечать на сообщения
Вы не можете редактировать свои сообщения
Вы не можете удалять свои сообщения
Вы не можете голосовать в опросах
Вы не можете прикреплять файлы к сообщениям
Вы не можете скачивать файлы