Последний охотник на ведьм / The Last Witch Hunter (Брек Эйснер / Breck Eisner) [2015 г., США, Китай, Канада, фэнтези, боевик, приключения, BDRip 720р | 60 fps] (DUB)

Ответить на тему
 

kat222000 ®

Стаж: 6 лет 8 месяцев

Сообщений: 608

Симпатии: 1055

Последний охотник на ведьм / The Last Witch Hunter«Вечно жить. Вечно убивать» -Страна: США, Китай, Канада
Жанр: фэнтези, боевик, приключения
Год выпуска: 2015
Продолжительность: 01:46:27
Перевод: Профессиональный (полное дублирование)
Субтитры: нет
Навигация по главам: есть-Режиссер: Брек Эйснер / Breck Eisner-В ролях: Вин Дизель, Роуз Лесли, Элайджа Вуд, Оулавюр Дарри Оулафссон, Рина Оуэн, Юли Энгельбрехт, Майкл Кейн, Джозеф Гилган, Исаак Де Банколе, Майкл Халсли-Описание: Современный мир скрывает множество секретов, но самым удивительным из них является то, что ведьмы до сих пор живут среди нас. Это злобные сверхъестественные существа, чья цель — наслать на мир смертоносную чуму. Армии охотников на ведьм сражались с ними на протяжении многих веков.
В наши дни остался всего лишь один охотник на ведьм, Колдер, которому однажды удалось убить всемогущую королеву ведьм. Но Колдер еще не знает, что королева воскресла и жаждет отомстить своему убийце…- -Возраст: зрителям, достигшим 16 лет-Рейтинг MPAA: детям до 13 лет просмотр не желателен-Качество видео: BDRip 720р | 60 fps
Формат видео: MKV
Видео кодек: AVC
Аудио кодек: AC3
Видео: 1280 x 720 (1.778), 60,000 fps, AVC ~5 723 kbps avg, 0.103 bit/pixel
Аудио: 48 kHz, AC3 Dolby Digital, 3/2 (L,C,R,l,r) + LFE ch, ~384.00 kbps avg (Русский | DUB)-

〤 Отчет МедиаИнфо 〤

General
Unique ID : 248738044598100590996092869669191205676 (0xBB213470649B29D18EF64B27045CC32C)
Format : Matroska
Format version : Version 4 / Version 2
File size : 4.63 GiB
Duration : 1h 46mn
Overall bit rate mode : Variable
Overall bit rate : 6 231 Kbps
Movie name : The Last Witch Hunter
Encoded date : UTC 2016-01-13 13:52:37
Writing application : mkvmerge v7.6.0 ('Garden of Dreams') 32bit built on Feb 8 2015 12:51:39
Writing library : libebml v1.3.1 + libmatroska v1.4.2
Attachements : Cover.png
DURATION : 01:46:26.848000000
NUMBER_OF_FRAMES : 199589
NUMBER_OF_BYTES : 306568704
_STATISTICS_WRITING_APP : mkvmerge v7.6.0 ('Garden of Dreams') 32bit built on Feb 8 2015 12:51:39
_STATISTICS_WRITING_DATE_UT : 2016-01-13 13:52:37
_STATISTICS_TAGS : BPS DURATION NUMBER_OF_FRAMES NUMBER_OF_BYTES
Video
ID : 1
Format : AVC
Format/Info : Advanced Video Codec
Format profile : [email protected]
Format settings, CABAC : Yes
Format settings, ReFrames : 3 frames
Codec ID : V_MPEG4/ISO/AVC
Duration : 1h 46mn
Bit rate mode : Variable
Bit rate : 5 723 Kbps
Maximum bit rate : 6 000 Kbps
Width : 1 280 pixels
Height : 720 pixels
Display aspect ratio : 16:9
Frame rate mode : Constant
Frame rate : 60.000 fps
Standard : PAL
Color space : YUV
Chroma subsampling : 4:2:0
Bit depth : 8 bits
Scan type : Progressive
Bits/(Pixel*Frame) : 0.103
Stream size : 4.26 GiB (92%)
Language : English
Default : Yes
Forced : No
Color range : Limited
Color primaries : BT.709
Transfer characteristics : BT.709
Matrix coefficients : BT.709
Audio
ID : 2
Format : AC-3
Format/Info : Audio Coding 3
Mode extension : CM (complete main)
Format settings, Endianness : Big
Codec ID : A_AC3
Duration : 1h 46mn
Bit rate mode : Constant
Bit rate : 384 Kbps
Channel(s) : 6 channels
Channel positions : Front: L C R, Side: L R, LFE
Sampling rate : 48.0 KHz
Compression mode : Lossy
Stream size : 292 MiB (6%)
Language : Russian
Default : Yes
Forced : No
Menu
00:00:00.000 : en:Глава 1
00:05:21.000 : en:Глава 2
00:12:06.000 : en:Глава 3
00:18:03.000 : en:Глава 4
00:25:15.000 : en:Глава 5
00:30:58.000 : en:Глава 6
00:36:21.000 : en:Глава 7
00:42:57.000 : en:Глава 8
00:49:17.000 : en:Глава 9
00:54:59.000 : en:Глава 10
01:00:28.000 : en:Глава 11
01:05:48.000 : en:Глава 12
01:12:07.000 : en:Глава 13
01:17:47.000 : en:Глава 14
01:23:42.000 : en:Глава 15
01:29:42.000 : en:Глава 16
01:35:48.000 : en:Глава 17
-

〤 Скриншоты 〤



- © Оформление by kat222000

Создавать темы 20-Фев-2016 00:16

[Профиль]  [ЛС] 

djek

Стаж: 6 лет

Сообщений: 90

Симпатии: 4

раздайте сиди ! чо тормозим ???

Создавать темы 27-Апр-2016 09:21

[Профиль]  [ЛС] 
Показать сообщения:    
Ответить на тему

Текущее время: 13-Дек 14:25

Часовой пояс: UTC + 5



Вы не можете начинать темы
Вы не можете отвечать на сообщения
Вы не можете редактировать свои сообщения
Вы не можете удалять свои сообщения
Вы не можете голосовать в опросах
Вы не можете прикреплять файлы к сообщениям
Вы не можете скачивать файлы