[#112] 3 Идиота | Три идиота / 3 Idiots (Раджкумар Хирани / Rajkumar Hirani) [2009, Индия, драма, мелодрама, комедия, BDRip-AVC] (MVO : BBC Saint Petersburg)

Ответить на тему
 

adidas ®

Стаж: 2 года 1 месяц

Сообщений: 4

Симпатии: 3

3 Идиота | Три идиота / 3 Idiots Страна: Индия
Жанр: драма, мелодрама, комедия
Год выпуска: 2009
Продолжительность: 02:51:07
Перевод: Профессиональный (многоголосый закадровый) BBC Saint Petersburg
Cубтитры: Rus , Eng
Оригинальная аудиодорожка: Hindi
Режиссер: Раджкумар Хирани / Rajkumar Hirani
В ролях: Аамир Кхан | Aamir Khan
Мадхаван, Шарман Джоши, Боман Ирани, Карина Капур, Оми Вайдья, Мона Сингх, Али Фазал, Рахул Кумар
Описание: Двое друзей отправляются на поиски пропавшего приятеля. В этом путешествии им предстоит постоянно ввязываться в уже давно забытые споры, расстроить чужую свадьбу и побывать на похоронах. Их дорога проходит через опасные места. И тут начинается еще одно не совсем обычное путешествие друзей дорогами их памяти.
Они вспоминают своего приятеля, неудержимого и свободомыслящего Ранчо, который каким-то удивительным образом ворвался в их жизнь и все в ней изменил. Они вспоминают те времена, когда все они жили в студенческом общежитии. Вспоминают о том, как зарождалась любовь Ранчо к бойкой девушке Пиа и о конфликте Ранчо с его наставником, настоящим тираном Виру Сахастрабудхе. И вот однажды Ранчо вдруг исчезает… Кем он был на самом деле? Откуда он родом? Почему исчез?
Доп. информация: Фильм был высоко оценен за рубежом. На Rotten Tomatoes он имеет 100 % рейтинг критиков, основанный на шести обзорах, а также рейтинг аудитории 93 %, основанный на более чем 20 000 голосах.На китайском сайте Douban «3 идиота» имеет среднюю оценку аудитории 9,1 из 10 на основе более 500 000 голосов и занимает 12 место среди лучших фильмов.
______________________________________________________________________________


Качество видео: BDRip-AVC
Формат видео: MKV
Видео: AVC 3805 Kbps 1152 x 490 (2.351) 24.000 fps
Аудио: AC-3 448 Kbps 6 channels, 48.0 KHz BBC Saint Petersburg
Аудио 2: AC-3 448 Kbps 6 channels, 48.0 KHz Hindi
Формат субтитров: softsub (SRT)

MediaInfo

Log

x264 [info]: frame I:2158 Avg QP:16.82 size: 96429
x264 [info]: frame P:56976 Avg QP:18.53 size: 43093
x264 [info]: frame B:187281 Avg QP:20.95 size: 12490
x264 [info]: consecutive B-frames: 2.5% 2.6% 9.7% 27.4% 18.4% 35.7% 2.2% 0.5% 0.4% 0.1% 0.1% 0.1% 0.2%
x264 [info]: mb I I16..4: 7.9% 70.6% 21.5%
x264 [info]: mb P I16..4: 0.5% 14.2% 1.9% P16..4: 27.0% 33.0% 16.3% 2.9% 0.3% skip: 4.0%
x264 [info]: mb B I16..4: 0.0% 1.4% 0.2% B16..8: 32.6% 22.6% 4.8% direct: 6.9% skip:31.5% L0:37.0% L1:43.9% BI:19.1%
x264 [info]: 8x8 transform intra:83.3% inter:57.6%
x264 [info]: direct mvs spatial:100.0% temporal:0.0%
x264 [info]: coded y,uvDC,uvAC intra: 94.8% 96.1% 91.1% inter: 30.2% 34.1% 16.9%
x264 [info]: i16 v,h,dc,p: 40% 11% 12% 37%
x264 [info]: i8 v,h,dc,ddl,ddr,vr,hd,vl,hu: 10% 8% 9% 9% 13% 13% 13% 12% 13%
x264 [info]: i4 v,h,dc,ddl,ddr,vr,hd,vl,hu: 12% 8% 5% 8% 15% 15% 13% 12% 12%
x264 [info]: i8c dc,h,v,p: 52% 15% 15% 17%
x264 [info]: Weighted P-Frames: Y:3.9% UV:2.6%
x264 [info]: ref P L0: 45.8% 13.1% 17.3% 5.3% 4.9% 3.1% 3.2% 1.6% 1.7% 1.3% 1.4% 1.2% 0.2% 0.0%
x264 [info]: ref B L0: 83.4% 8.2% 2.9% 1.6% 1.0% 0.9% 0.7% 0.5% 0.4% 0.3% 0.2%
x264 [info]: ref B L1: 96.2% 3.8%
x264 [info]: kb/s:3897.76
x264 [total]: encoded 246415 frames, 8.29 fps, 3897.76 kb/s, duration 8:15:37.43
Format : Matroska
Format version : Version 4 / Version 2
File size : 5.73 GiB
Duration : 2h 51mn
Overall bit rate : 4 796 Kbps
Encoded date : UTC 2015-04-23 21:16:07
Writing application : mkvmerge v6.7.0 ('Back to the Ground') 32bit built on Jan 8 2014 15:03:17
Writing library : libebml v1.3.0 + libmatroska v1.4.1
Video
ID : 1
Format : AVC
Format/Info : Advanced Video Codec
Format profile : [email protected]
Format settings, CABAC : Yes
Format settings, ReFrames : 12 frames
Codec ID : V_MPEG4/ISO/AVC
Duration : 2h 51mn
Bit rate : 3 805 Kbps
Width : 1 152 pixels
Height : 490 pixels
Display aspect ratio : 2.35:1
Frame rate mode : Constant
Frame rate : 24.000 fps
Color space : YUV
Chroma subsampling : 4:2:0
Bit depth : 8 bits
Scan type : Progressive
Bits/(Pixel*Frame) : 0.281
Stream size : 4.55 GiB (79%)
Title : 3 Idiots 2009 [rutracker.org]
Writing library : x264 core 146 r2538kMod 121396c
Encoding settings : cabac=1 / ref=12 / deblock=1:-2:-1 / analyse=0x3:0x133 / me=umh / subme=11 / psy=1 / fade_compensate=0.00 / psy_rd=1.00:0.05 / mixed_ref=1 / me_range=32 / chroma_me=1 / trellis=2 / 8x8dct=1 / cqm=0 / deadzone=21,11 / fast_pskip=0 / chroma_qp_offset=-3 / threads=12 / lookahead_threads=3 / sliced_threads=0 / nr=0 / decimate=1 / interlaced=0 / bluray_compat=0 / constrained_intra=0 / fgo=0 / bframes=12 / b_pyramid=2 / b_adapt=2 / b_bias=0 / direct=3 / weightb=1 / open_gop=0 / weightp=2 / keyint=250 / keyint_min=23 / scenecut=40 / intra_refresh=0 / rc_lookahead=80 / rc=crf / mbtree=0 / crf=17.4000 / qcomp=0.60 / qpmin=0 / qpmax=69 / qpstep=4 / vbv_maxrate=50000 / vbv_bufsize=62500 / crf_max=0.0 / nal_hrd=none / filler=0 / ip_ratio=1.40 / pb_ratio=1.30 / aq=3:0.90
Language : Hindi
Default : Yes
Forced : No
Audio #1
ID : 2
Format : AC-3
Format/Info : Audio Coding 3
Mode extension : CM (complete main)
Format settings, Endianness : Big
Codec ID : A_AC3
Duration : 2h 51mn
Bit rate mode : Constant
Bit rate : 448 Kbps
Channel(s) : 6 channels
Channel positions : Front: L C R, Side: L R, LFE
Sampling rate : 48.0 KHz
Bit depth : 16 bits
Compression mode : Lossy
Stream size : 548 MiB (9%)
Title : MVO BBC Saint Petersburg
Language : Russian
Default : Yes
Forced : No
Audio #2
ID : 3
Format : AC-3
Format/Info : Audio Coding 3
Mode extension : CM (complete main)
Format settings, Endianness : Big
Codec ID : A_AC3
Duration : 2h 51mn
Bit rate mode : Constant
Bit rate : 448 Kbps
Channel(s) : 6 channels
Channel positions : Front: L C R, Side: L R, LFE
Sampling rate : 48.0 KHz
Bit depth : 16 bits
Compression mode : Lossy
Stream size : 548 MiB (9%)
Title : Original
Language : Hindi
Default : No
Forced : No
Text #1
ID : 4
Format : UTF-8
Codec ID : S_TEXT/UTF8
Codec ID/Info : UTF-8 Plain Text
Title : Full
Language : Russian
Default : No
Forced : No
Text #2
ID : 5
Format : UTF-8
Codec ID : S_TEXT/UTF8
Codec ID/Info : UTF-8 Plain Text
Language : English
Default : No
Forced : No
Menu
00:00:00.000 : en:00:00:00.000
00:01:07.375 : en:00:01:07.375
00:08:23.042 : en:00:08:23.042
00:13:24.417 : en:00:13:24.417
00:18:07.667 : en:00:18:07.667
00:23:13.000 : en:00:23:13.000
00:28:49.250 : en:00:28:49.250
00:30:02.208 : en:00:30:02.208
00:31:29.042 : en:00:31:29.042
00:37:09.250 : en:00:37:09.250
00:44:34.000 : en:00:44:34.000
00:59:55.333 : en:00:59:55.333
01:06:27.500 : en:01:06:27.500
01:14:12.083 : en:01:14:12.083
01:20:47.125 : en:01:20:47.125
01:25:03.417 : en:01:25:03.417
01:28:24.833 : en:01:28:24.833
01:36:50.833 : en:01:36:50.833
01:42:58.417 : en:01:42:58.417
01:47:41.042 : en:01:47:41.042
01:52:03.000 : en:01:52:03.000
01:58:04.708 : en:01:58:04.708
02:09:01.542 : en:02:09:01.542
02:11:40.667 : en:02:11:40.667
02:18:18.625 : en:02:18:18.625
02:24:14.333 : en:02:24:14.333
02:37:46.042 : en:02:37:46.042

Скриншот c названием фильма

Скриншоты



Последний раз редактировалось: adidas (2016-05-08 17:41), всего редактировалось 3 раз(а)

Создавать темы 08-Май-2016 17:16

[Профиль]  [ЛС] 

Топик был перенесен из форума Индийское кино в форум 250 лучших фильмов по версии IMDb
ruhal

Создавать темы 09-Май-2016 19:35

 

cortes

Стаж: 2 года 7 месяцев

Сообщений: 5

Симпатии: 9

один из любимых фильмов + Звездочки на земле
Аамир Кхан великолепен

Создавать темы 11-Май-2016 21:56

[Профиль]  [ЛС] 

killer_said

Стаж: 6 лет 8 месяцев

Сообщений: 183

Симпатии: 54

Как так а ребят, через 7 лет я вижу такой шедевр. Какой же я отсталый gg ay

Создавать темы 19-Май-2016 23:02

[Профиль]  [ЛС] 
Показать сообщения:    
Ответить на тему

Текущее время: 19-Окт 10:38

Часовой пояс: UTC + 5



Вы не можете начинать темы
Вы не можете отвечать на сообщения
Вы не можете редактировать свои сообщения
Вы не можете удалять свои сообщения
Вы не можете голосовать в опросах
Вы не можете прикреплять файлы к сообщениям
Вы не можете скачивать файлы