Выхода нет / No Escape (Джон Эрик Даудл) [2015, США, боевик, триллер, HDRip] [Лицензия] [Original Eng]

Ответить на тему
 

ruhal ®

Стаж: 2 года 8 месяцев

Сообщений: 1181

Симпатии: 1836

- -Выхода нет / No Escape- - Страна: США
Жанр: боевик, триллер
Год выпуска: 2015
Продолжительность: 01:43:06-Перевод: Профессиональный (многоголосый закадровый) Лицензия
Cубтитры: нет
Оригинальная аудиодорожка: английский-Режиссер: Джон Эрик Даудл-В ролях: Оуэн Уилсон, Лэйк Белл, Пирс Броснан, Стерлинг Джеринс, Тханавут Касро,
Чатчаваи Камонсакпитак, Сахайак Бунсанакит, Танапол Чуксрида, Нопханд Буньяй, Канарпат Финтиянг-Описание: Американец вместе со своей семьей переезжает в Юго-Восточную Азию,
но мирно пожить там не удается: вокруг разгорается жестокий военный переворот.-Качество видео: HDRip
Формат видео: AVI
Видео: Xvid 704x380 23.976fps 1930kbps
Аудио: Dolby AC3 48000Hz 6ch 448kbps[Rus]
Аудио 2: Dolby AC3 48000Hz 6ch 448kbps[Eng]
-

MediaInfo

General
Complete name : E:\Films\No.Escape.2015.HDRip.2.05.avi
Format : AVI
Format/Info : Audio Video Interleave
Format profile : OpenDML
File size : 2.05 GiB
Duration : 1h 43mn
Overall bit rate : 2 845 Kbps
Writing application : VirtualDubModRus 1.5.10.2 (build 2542/release)
Writing library : VirtualDubMod build 2542/release
Video
ID : 0
Format : MPEG-4 Visual
Format profile : Advanced [email protected]
Format settings, BVOP : 2
Format settings, QPel : No
Format settings, GMC : No warppoints
Format settings, Matrix : Default (MPEG)
Codec ID : XVID
Codec ID/Hint : XviD
Duration : 1h 43mn
Bit rate : 1 931 Kbps
Width : 704 pixels
Height : 380 pixels
Display aspect ratio : 1.85:1
Frame rate : 23.976 fps
Color space : YUV
Chroma subsampling : 4:2:0
Bit depth : 8 bits
Scan type : Progressive
Compression mode : Lossy
Bits/(Pixel*Frame) : 0.301
Stream size : 1.39 GiB (68%)
Writing library : XviD 1.2.1 (UTC 2008-12-04)
Audio #1
ID : 1
Format : AC-3
Format/Info : Audio Coding 3
Mode extension : CM (complete main)
Format settings, Endianness : Big
Codec ID : 2000
Duration : 1h 43mn
Bit rate mode : Constant
Bit rate : 448 Kbps
Channel(s) : 6 channels
Channel positions : Front: L C R, Side: L R, LFE
Sampling rate : 48.0 KHz
Compression mode : Lossy
Stream size : 330 MiB (16%)
Alignment : Split accross interleaves
Interleave, duration : 42 ms (1.00 video frame)
Interleave, preload duration : 500 ms
Audio #2
ID : 2
Format : AC-3
Format/Info : Audio Coding 3
Mode extension : CM (complete main)
Format settings, Endianness : Big
Codec ID : 2000
Duration : 1h 43mn
Bit rate mode : Constant
Bit rate : 448 Kbps
Channel(s) : 6 channels
Channel positions : Front: L C R, Side: L R, LFE
Sampling rate : 48.0 KHz
Compression mode : Lossy
Stream size : 330 MiB (16%)
Alignment : Split accross interleaves
Interleave, duration : 42 ms (1.00 video frame)
Interleave, preload duration : 500 ms

Скриншот c названием фильма

Скриншоты




Последний раз редактировалось: ruhal (2016-02-22 21:50), всего редактировалось 2 раз(а)

Создавать темы 06-Дек-2015 17:28

[Профиль]  [ЛС] 

ruhal ®

Стаж: 2 года 8 месяцев

Сообщений: 1181

Симпатии: 1836

Прошу модеров прилепить!

Создавать темы 06-Дек-2015 17:29

[Профиль]  [ЛС] 

abuz85

Стаж: 8 лет 11 месяцев

Сообщений: 109

Симпатии: 80

961220Перевод: Профессиональный (многоголосый закадровый) iTunes / Лицензия
Не смог найти такой же релиз во внешних ресурсах. Все что нашел
Перевод: Дублированный [Звук с IPTV]

Создавать темы 06-Дек-2015 18:34

[Профиль]  [ЛС] 

Xurshed

Стаж: 4 года 2 месяца

Сообщений: 3

Симпатии: 1

Фильм очень классный, советую всем посмотреть

Создавать темы 08-Янв-2016 21:42

[Профиль]  [ЛС] 

Riderik97

Стаж: 2 года 7 месяцев

Сообщений: 9

Симпатии: 2

skorst yuq

Создавать темы 18-Янв-2016 18:43

[Профиль]  [ЛС] 

Riderik97

Стаж: 2 года 7 месяцев

Сообщений: 9

Симпатии: 2

скорост нету

Создавать темы 04-Мар-2016 09:24

[Профиль]  [ЛС] 

JaapStam

Стаж: 2 года

Сообщений: 9

Симпатии: 2

Не фильм, а детсад) особенно концовка)))

Создавать темы 06-Мар-2016 12:14

[Профиль]  [ЛС] 

dinar_sinchileyev

Стаж: 3 года 10 месяцев

Сообщений: 2

Симпатии: 1

раздачу по братски

Создавать темы 04-Май-2016 00:00

[Профиль]  [ЛС] 

Богдан-net

Стаж: 1 год 7 месяцев

Сообщений: 66

Симпатии: 8

скриншоты не работают что то у многих чё за проблема

Создавать темы 28-Май-2016 18:01

[Профиль]  [ЛС] 

ruhal ®

Стаж: 2 года 8 месяцев

Сообщений: 1181

Симпатии: 1836

975194скриншоты не работают что то у многих чё за проблема
После падения трекера бэкап не на все изображения сделали

Создавать темы 28-Май-2016 19:07

[Профиль]  [ЛС] 
Показать сообщения:    
Ответить на тему

Текущее время: 14-Дек 22:00

Часовой пояс: UTC + 5



Вы не можете начинать темы
Вы не можете отвечать на сообщения
Вы не можете редактировать свои сообщения
Вы не можете удалять свои сообщения
Вы не можете голосовать в опросах
Вы не можете прикреплять файлы к сообщениям
Вы не можете скачивать файлы