Охота на пиранью (Андрей Кавун) [2006, боевик, триллер, криминал, DVDRip]

Ответить на тему
 

teddi ®

Стаж: 1 год 4 месяца

Сообщений: 87

Симпатии: 46

-Охота на пиранью- Жанр: боевик, триллер, криминал
Год выпуска: 2006
Продолжительность: 02:47:37-Режиссёр: Андрей Кавун-В ролях: Владимир Машков, Евгений Миронов, Андрей Мерзликин,
Светлана Антонова, Сергей Гармаш, Михаил Ефремов, Александр Новин,
Виктория Исакова, Анна Банщикова, Алексей Горбунов, Рамиль Сабитов, Юрий Пристром-Описание: Под видом совместного отпуска агент спецподразделения «Пираньи» Кирилл Мазур
с коллегой Ольгой направляются в сибирскую тайгу с заданием ликвидировать лабораторию химического оружия,
затопленную на дне озера на территории, которая вскоре должна отойти соседнему Китаю.
Неожиданно они оказываются в мире, где законы цивилизации забыты, а смертоносное оружие
захвачено бандитами под предводительством нового «хозяина тайги» Прохора, который на досуге развлекается настоящей охотой на людей.
Мазур не ожидал, что ему придется сменить привычный автомат на самодельный костяной нож,
и спасать себя и напарницу, вместо того, чтобы спасать мир. Но и охотники не догадывались, что для них это сафари в северных лесах окажется не менее опасным, чем для живых мишеней.-КиноПоиск: 6.568 (23 724)
IMDb: 6.10 (1243)-Качество видео: DVDRip
Формат видео: AVI
Видео: Xvid 640x304 25fps 1547kbps
Аудио: MPEG Audio 48000Hz stereo 192kbps-

MediaInfo

Complete name : E:\Video\Ohota na piranyu.avi
Format : AVI
Format/Info : Audio Video Interleave
Format profile : OpenDML
File size : 2.05 GiB
Duration : 2h 47mn
Overall bit rate : 1 753 Kbps
Writing library : VirtualDub build 32706/release
Video
ID : 0
Format : MPEG-4 Visual
Format profile : Advanced [email protected]
Format settings, BVOP : 2
Format settings, QPel : No
Format settings, GMC : No warppoints
Format settings, Matrix : Default (H.263)
Muxing mode : Packed bitstream
Codec ID : XVID
Codec ID/Hint : XviD
Duration : 2h 47mn
Bit rate : 1 548 Kbps
Width : 640 pixels
Height : 304 pixels
Display aspect ratio : 2.105
Frame rate : 25.000 fps
Color space : YUV
Chroma subsampling : 4:2:0
Bit depth : 8 bits
Scan type : Progressive
Compression mode : Lossy
Bits/(Pixel*Frame) : 0.318
Stream size : 1.81 GiB (88%)
Writing library : XviD 1.1.2 (UTC 2006-11-01)
Audio
ID : 1
Format : MPEG Audio
Format version : Version 1
Format profile : Layer 2
Codec ID : 50
Duration : 2h 47mn
Bit rate mode : Constant
Bit rate : 192 Kbps
Channel(s) : 2 channels
Sampling rate : 48.0 KHz
Compression mode : Lossy
Stream size : 230 MiB (11%)
Alignment : Aligned on interleaves
Interleave, duration : 40 ms (1.00 video frame)
Interleave, preload duration : 504 ms

Скриншот c названием фильма

Скриншоты



Последний раз редактировалось: teddi (2016-06-03 14:26), всего редактировалось 2 раз(а)

Создавать темы 03-Июн-2016 14:17

[Профиль]  [ЛС] 

Топик был перенесен из форума CamRip, DVDScr и т.п. в форум Фильмы до 2010
ruhal

Создавать темы 03-Июн-2016 14:24

 

kat222000

Стаж: 6 лет 4 месяца

Сообщений: 608

Симпатии: 1055

teddi, он же tahir1970, а по лучше качества не нашлось?

Создавать темы 03-Июн-2016 19:43

[Профиль]  [ЛС] 

teddi ®

Стаж: 1 год 4 месяца

Сообщений: 87

Симпатии: 46

kat222000,
Качалось тогда, когда я был в России, на то время нашел только этот тврип. И как говорится, чем богаты, тем и рады.
Но, с нынешним положением интернета в Узе, очень сложно релизить хорошее качество. Фильм Дежа Вю с этого трекера качали где-то пару недель минимум, а потом уходят с раздачи. :))) Что не есть гуд.

Создавать темы 03-Июн-2016 22:13

[Профиль]  [ЛС] 

kat222000

Стаж: 6 лет 4 месяца

Сообщений: 608

Симпатии: 1055

teddi, Почему Вы тут указали Качество видео: DVDRip, а на соседнем Качество: TVRip ???


Последний раз редактировалось: kat222000 (2016-06-04 00:05), всего редактировалось 1 раз

Создавать темы 03-Июн-2016 23:00

[Профиль]  [ЛС] 

teddi ®

Стаж: 1 год 4 месяца

Сообщений: 87

Симпатии: 46

kat222000,
Ответ в ЛС

Создавать темы 03-Июн-2016 23:25

[Профиль]  [ЛС] 

teddi ®

Стаж: 1 год 4 месяца

Сообщений: 87

Симпатии: 46

Привет, всем!
Для любителей почитать http://tas-ix.me/viewtopic.php?t=113597 Книжная серия "Пиранья"

Создавать темы 07-Июн-2016 00:06

[Профиль]  [ЛС] 
Показать сообщения:    
Ответить на тему

Текущее время: 18-Авг 21:15

Часовой пояс: UTC + 5



Вы не можете начинать темы
Вы не можете отвечать на сообщения
Вы не можете редактировать свои сообщения
Вы не можете удалять свои сообщения
Вы не можете голосовать в опросах
Вы не можете прикреплять файлы к сообщениям
Вы не можете скачивать файлы