Смертельная Битва: Дилогия / Mortal Kombat: Dilogy (Пол У. С. Андерсон, Джон Р. Леонетти) [1995,1997., США., фантастика, фэнтези, боевик, триллер, приключения., BDRip 720p] (Dub)

Ответить на тему
 

ruhal ®

Стаж: 2 года 6 месяцев

Сообщений: 1181

Симпатии: 1836

-- - -Смертельная Битва: Дилогия / Mortal Kombat: Dilogy-

Смертельная битва/Mortal Kombat

- - - Смертельная битва / Mortal Kombat-Страна: США
Жанр: фантастика, фэнтези, боевик, триллер, приключения
Год выпуска: 1995
Продолжительность: 01:41:20-Перевод: Профессиональный (дублированный)
Cубтитры: нет-Режиссер: Пол У. С. Андерсон-В ролях: Робин Шоу, Линден Эшби, Бриджит Уилсон, Кристофер Ламберт, Кэри-Хироюки Тагава,
Талиса Сото, Тревор Годдар, Крис Касамасса, Франсуа Пети, Кит Кук, Хаким Олстон, Кеннет Эдвардс-Описание: Несколько столетий назад Шанг Тсунг - маг из потустороннего мира захватил в свои руки древний воинский турнир.
Его цель - ввергнуть наш мир в хаос. Чтобы спасти человечество от гибели, троим воинам предстоит битва... смертельная битва с силами мрака.-Качество видео: BDRip
Формат видео: MKV
Видео: MPEG4 Video (H264) 1280x720 23.976fps
Аудио:Dolby AC3 48000Hz 6ch 384kbps-

MediaInfo

General
Unique ID : 229845236729309628023745306129488281065 (0xACEA95181CC1FE48924B350D008DFDE9)
Complete name : E:\Films\HD\Mortal Kombat Dilogy\Смертельная битва Mortal.Kombat.1995.BDRip.mkv
Format : Matroska
Format version : Version 2
File size : 2.29 GiB
Duration : 1h 41mn
Overall bit rate mode : Variable
Overall bit rate : 3 230 Kbps
Movie name : Rip by Romeo [FLINTFILMS.RU]
Encoded date : UTC 2010-08-18 23:09:33
Writing application : mkvmerge v3.0.0 ('Hang up your Hang-Ups') built on Dec 12 2009 15:20:35
Writing library : libebml v0.7.9 + libmatroska v0.8.1
Video
ID : 1
Format : AVC
Format/Info : Advanced Video Codec
Format profile : [email protected]
Format settings, CABAC : Yes
Format settings, ReFrames : 3 frames
Codec ID : V_MPEG4/ISO/AVC
Duration : 1h 41mn
Bit rate mode : Variable
Bit rate : 2 870 Kbps
Maximum bit rate : 17.5 Mbps
Width : 1 280 pixels
Height : 720 pixels
Display aspect ratio : 16:9
Frame rate mode : Constant
Frame rate : 23.976 fps
Color space : YUV
Chroma subsampling : 4:2:0
Bit depth : 8 bits
Scan type : Progressive
Bits/(Pixel*Frame) : 0.130
Stream size : 1.97 GiB (86%)
Title : Смертельная Битва.[flintfilms.ru]
Writing library : x264 core 102 r1666 d058f37
Encoding settings : cabac=1 / ref=1 / deblock=1:0:0 / analyse=0x3:0x3 / me=dia / subme=1 / psy=1 / psy_rd=0.00:0.00 / mixed_ref=0 / me_range=16 / chroma_me=1 / trellis=0 / 8x8dct=1 / cqm=0 / deadzone=21,11 / fast_pskip=1 / chroma_qp_offset=0 / threads=6 / sliced_threads=0 / slices=4 / nr=0 / decimate=1 / interlaced=0 / constrained_intra=0 / bframes=3 / b_pyramid=1 / b_adapt=1 / b_bias=0 / direct=1 / weightb=1 / open_gop=0 / weightp=0 / keyint=24 / keyint_min=1 / scenecut=40 / intra_refresh=0 / rc_lookahead=0 / rc=abr / mbtree=0 / bitrate=2870 / ratetol=1.0 / qcomp=0.60 / qpmin=0 / qpmax=51 / qpstep=4 / vbv_maxrate=17500 / vbv_bufsize=14500 / ip_ratio=1.10 / pb_ratio=1.10 / aq=1:1.00 / nal_hrd=vbr
Language : English
Default : Yes
Forced : No
Audio
ID : 2
Format : AC-3
Format/Info : Audio Coding 3
Mode extension : CM (complete main)
Format settings, Endianness : Big
Codec ID : A_AC3
Duration : 1h 41mn
Bit rate mode : Constant
Bit rate : 384 Kbps
Channel(s) : 6 channels
Channel positions : Front: L C R, Side: L R, LFE
Sampling rate : 48.0 KHz
Bit depth : 16 bits
Compression mode : Lossy
Stream size : 278 MiB (12%)
Title : Профессиональный многоголосый
Language : Russian
Default : Yes
Forced : No

Скриншот c названием фильма

Скриншоты



Смертельная битва 2: Истребление/Mortal Kombat: Annihilation

- - -Смертельная битва 2: Истребление / Mortal Kombat: Annihilation- Страна: США
Жанр: фантастика, фэнтези, боевик, триллер, приключения
Год выпуска: 1997
Продолжительность: 01:35:41-Перевод: Профессиональный (дублированный)
Cубтитры: нет-Режиссер: Джон Р. Леонетти-В ролях: Робин Шоу, Талиса Сото, Джеймс Римар, Сандра Хесс, Линн ’Красный’ Уильямс,
Брайан Томпсон, Райнер Шёне, Мусетта Вандер, Ирина Пантаева, Дерон Макби, Марджин Холден, Лайтфут-Описание: Император Внеземелья Шао Кан прибывает на Землю,
чтобы лично предупредить ее жителей о своих намерениях: уничтожить мир земной,
и сделать все это за семь библейских дней. В числе его подручных - роботы,
обладающие инстинктами и приемами ниндзя, четырехрукая дева Шива и звероподобный человек Мотарро.
Но им противостоят герои Земли во главе с самим лордом Рейденом... Ожидается фейерверк единоборств!-Качество видео: BDRip
Формат видео: MKV
Видео: MPEG4 Video (H264) 1280x690 23.976fps
Аудио:Dolby AC3 48000Hz 6ch 448kbps-

MediaInfo

General
Unique ID : 210711025318454637357732723579987428334 (0x9E8577A2C3A3D489A7959EF4184803EE)
Complete name : E:\Films\HD\Mortal Kombat Dilogy\Смертельная битва 2 Истребление Mortal.Kombat.Annihilation.1997.BDRip.mkv
Format : Matroska
Format version : Version 2
File size : 2.19 GiB
Duration : 1h 35mn
Overall bit rate mode : Variable
Overall bit rate : 3 275 Kbps
Movie name : Rip by Romeo [FLINTFILMS.RU]
Encoded date : UTC 2010-08-19 00:08:27
Writing application : mkvmerge v3.0.0 ('Hang up your Hang-Ups') built on Dec 12 2009 15:20:35
Writing library : libebml v0.7.9 + libmatroska v0.8.1
Video
ID : 1
Format : AVC
Format/Info : Advanced Video Codec
Format profile : [email protected]
Format settings, CABAC : Yes
Format settings, ReFrames : 3 frames
Codec ID : V_MPEG4/ISO/AVC
Duration : 1h 35mn
Bit rate mode : Variable
Bit rate : 2 762 Kbps
Nominal bit rate : 2 936 Kbps
Maximum bit rate : 17.5 Mbps
Width : 1 280 pixels
Height : 690 pixels
Display aspect ratio : 1.85:1
Frame rate mode : Constant
Frame rate : 23.976 fps
Color space : YUV
Chroma subsampling : 4:2:0
Bit depth : 8 bits
Scan type : Progressive
Bits/(Pixel*Frame) : 0.130
Stream size : 1.85 GiB (84%)
Title : Смертельная битва 2: Истребление.[flintfilms.ru]
Writing library : x264 core 102 r1666 d058f37
Encoding settings : cabac=1 / ref=1 / deblock=1:0:0 / analyse=0x3:0x3 / me=dia / subme=1 / psy=1 / psy_rd=0.00:0.00 / mixed_ref=0 / me_range=16 / chroma_me=1 / trellis=0 / 8x8dct=1 / cqm=0 / deadzone=21,11 / fast_pskip=1 / chroma_qp_offset=0 / threads=6 / sliced_threads=0 / slices=4 / nr=0 / decimate=1 / interlaced=0 / constrained_intra=0 / bframes=3 / b_pyramid=1 / b_adapt=1 / b_bias=0 / direct=1 / weightb=1 / open_gop=0 / weightp=0 / keyint=24 / keyint_min=1 / scenecut=40 / intra_refresh=0 / rc_lookahead=0 / rc=abr / mbtree=0 / bitrate=2936 / ratetol=1.0 / qcomp=0.60 / qpmin=0 / qpmax=51 / qpstep=4 / vbv_maxrate=17500 / vbv_bufsize=14500 / ip_ratio=1.10 / pb_ratio=1.10 / aq=1:1.00 / nal_hrd=vbr
Language : English
Default : Yes
Forced : No
Audio
ID : 2
Format : AC-3
Format/Info : Audio Coding 3
Mode extension : CM (complete main)
Format settings, Endianness : Big
Codec ID : A_AC3
Duration : 1h 35mn
Bit rate mode : Constant
Bit rate : 448 Kbps
Channel(s) : 6 channels
Channel positions : Front: L C R, Side: L R, LFE
Sampling rate : 48.0 KHz
Bit depth : 16 bits
Compression mode : Lossy
Stream size : 307 MiB (14%)
Title : Профессиональный (многоголосый, закадровый)
Language : Russian
Default : Yes
Forced : No

Скриншот c названием фильма

Скриншоты





Последний раз редактировалось: ruhal (2017-01-10 14:40), всего редактировалось 4 раз(а)

Создавать темы 10-Фев-2016 09:28

[Профиль]  [ЛС] 

Baxtboy

Стаж: 5 лет 5 месяцев

Сообщений: 26

Симпатии: 6

Фильмы детства! Скачаю обязательно хоть и смотрел уже раз 100))

Комментарий от ruhal


Как говориться, кто не играл в Сегу в 90-х, тому не понять)))

Создавать темы 11-Фев-2016 18:54

[Профиль]  [ЛС] 

Baxtboy

Стаж: 5 лет 5 месяцев

Сообщений: 26

Симпатии: 6

967258Фильмы детства! Скачаю обязательно хоть и смотрел уже раз 100))
верно подмечено))

Создавать темы 16-Фев-2016 18:28

[Профиль]  [ЛС] 

nolan94

Стаж: 2 года

Сообщений: 4

Симпатии: 3

pls dayte skorost rebyata! kachal 71 %, kak tolko zakonchu ostanus na razdachi! pojaluuysta!

Создавать темы 09-Апр-2016 18:48

[Профиль]  [ЛС] 

killer_said

Стаж: 6 лет 8 месяцев

Сообщений: 183

Симпатии: 54

Соундтрек этого фильма всегда притягивал как и сама игра на сеге в 97 году, посмотрюка первую серию еще разок 10, ну вторую те времена нам не удалось смотреть, где то в 2005 году узнал что и вторая серия есть, нашел и посмотрел, ну уже на 2005 году чуть потерял свои эффекты :(. Я первую серию все равно люблю когда жони кейч шпагатом бьет об ...

Создавать темы 22-Апр-2016 10:13

[Профиль]  [ЛС] 

Сергей

Стаж: 1 год 5 месяцев

Сообщений: 45

Симпатии: 22

Дайте скорости! Скачивается всего по 9кб/с. Это не дело!

Создавать темы 07-Май-2016 10:12

[Профиль]  [ЛС] 

eldorado607

Стаж: 5 лет 9 месяцев

Сообщений: 10

Симпатии: 1

Уважаемые скачавшие, встаньте на раздачу плизз.

Создавать темы 09-Июн-2016 03:12

[Профиль]  [ЛС] 

totsamiy

Стаж: 5 лет 4 месяца

Сообщений: 145

Симпатии: 22

вернитесь на раздачу, плиз!

Создавать темы 23-Фев-2017 08:32

[Профиль]  [ЛС] 

kopkaish

Стаж: 2 года 6 месяцев

Сообщений: 38

Симпатии: 14

ДАйте скорость а так спасибо

Создавать темы 26-Июн-2017 20:30

[Профиль]  [ЛС] 
Показать сообщения:    
Ответить на тему

Текущее время: 24-Окт 16:16

Часовой пояс: UTC + 5



Вы не можете начинать темы
Вы не можете отвечать на сообщения
Вы не можете редактировать свои сообщения
Вы не можете удалять свои сообщения
Вы не можете голосовать в опросах
Вы не можете прикреплять файлы к сообщениям
Вы не можете скачивать файлы