Война (Алексей Балабанов) [2002, боевик, драма, военный, DVDRip]

Ответить на тему
 

teddi ®

Стаж: 1 год 5 месяцев

Сообщений: 87

Симпатии: 46

Война
Страна: Россия
Жанр: боевик, драма, военный
Год выпуска: 2002
Продолжительность: 01:59:54
Режиссёр: Алексей Балабанов
В ролях: Алексей Чадов, Иэн Келли, Ингеборга Дапкунайте, Сергей Бодров мл., Эвклид Кюрдзидис, Георгий Гургулия, Владимир Гостюхин, Бен Фостер, Юрий Степанов, Дэвид МакАллистер, Андрей Кормунин, Стив Джемисон
Описание: Аслан Гугаев, командир отряда чеченских боевиков, отпускает троих пленников - двух русских солдат сержанта Ивана Ермакова и рядового Кулика - потому что они не контрактники, а призывники. И англичанина Джона Бойла - потому что он должен собрать два миллиона фунтов стерлингов и привезти деньги Гугаеву в качестве выкупа за свою невесту Маргарет. Маргарет остается у Аслана. Так же, как и капитан российской армии Медведев...
За отведенные ему два месяца Джон не находит нужную сумму и не находит поддержки у британских властей, зато, вернувшись в Россию, находит Ваню Ермакова, живущего в Тобольске. Джон и Ваня опять едут в Чечню. Чтобы освободить английскую девушку Маргарет и русского капитана Медведева...
Качество видео: DVDRip
Формат видео: AVI
Видео: XviD, 720x416, ~1344 kbps, 25 fps
Аудио: AC3, 48 kHz, 384 kbps, 6 ch
слоган: «Это не Брат 3, это Война...»-КиноПоиск: 7.844 (27 449)
IMDb: 7.60 (2393)-

MediaInfo

General
Complete name : D:\p2p\in\Война.DVDRip-SVAT.avi
Format : AVI
Format/Info : Audio Video Interleave
File size : 1.46 GiB
Duration : 1h 59mn
Overall bit rate : 1 739 Kbps
Writing application : VirtualDubMod 1.5.10.3 | www.virtualdub-fr.org || (build 2550/release)
Writing library : VirtualDubMod build 2550/release
Video
ID : 0
Format : MPEG-4 Visual
Format profile : Advanced [email protected]
Format settings, BVOP : 2
Format settings, QPel : No
Format settings, GMC : No warppoints
Format settings, Matrix : Custom
Codec ID : XVID
Codec ID/Hint : XviD
Duration : 1h 59mn
Bit rate : 1 345 Kbps
Width : 720 pixels
Height : 416 pixels
Display aspect ratio : 1.731
Frame rate : 25.000 fps
Color space : YUV
Chroma subsampling : 4:2:0
Bit depth : 8 bits
Scan type : Progressive
Compression mode : Lossy
Bits/(Pixel*Frame) : 0.180
Stream size : 1.13 GiB (77%)
Writing library : XviD 65
Audio
ID : 1
Format : AC-3
Format/Info : Audio Coding 3
Mode extension : CM (complete main)
Format settings, Endianness : Big
Codec ID : 2000
Duration : 1h 59mn
Bit rate mode : Constant
Bit rate : 384 Kbps
Channel(s) : 6 channels
Channel positions : Front: L C R, Side: L R, LFE
Sampling rate : 48.0 KHz
Frame rate : 31.250 fps (1536 spf)
Compression mode : Lossy
Stream size : 329 MiB (22%)
Alignment : Split accross interleaves
Interleave, duration : 40 ms (1.00 video frame)
Interleave, preload duration : 500 ms

Скриншот c названием фильма

Скриншоты

Создавать темы 09-Июн-2016 00:53

[Профиль]  [ЛС] 

фазилов

Стаж: 3 года 7 месяцев

Сообщений: 310

Симпатии: 344

teddi, Что-то скорость совсем упала до 10 кБ/с.

Создавать темы 09-Июн-2016 16:15

[Профиль]  [ЛС] 

teddi ®

Стаж: 1 год 5 месяцев

Сообщений: 87

Симпатии: 46

фазилов,
Привет!
Спасибо, что реагируешь!
Дело в том, что у меня исходящая скорость где-то 90кбит/сек, и не знаю, как бы уговорить узонлайн ее повысить? Раньше не юзал ADSL, вот такие цифры исходящего-входящего потока. МОжет кто знает, как увеличить исходяющу скорость до 2048
Downstream Line Rate 2048
Upstream Line Rate 960
Сейчас одновременно качают 4 личера, поэтому скорость делится между вами и снизилась конкретно у тебя. А у меня была 20 кбит/сек именно на этой раздаче. На данный момент я отключил все другие раздачи, чтобы повысить и поэтому у меня просьба, когда скачаешь, не уходи с раздачи, чтобы и другие потом могли скачать. Обычно у тех, кто из Ташкента скорость отдачи получше. Заранее благодарю за помощь, если не уйдешь с разачи!

Создавать темы 09-Июн-2016 18:17

[Профиль]  [ЛС] 
Показать сообщения:    
Ответить на тему

Текущее время: 20-Сен 14:27

Часовой пояс: UTC + 5



Вы не можете начинать темы
Вы не можете отвечать на сообщения
Вы не можете редактировать свои сообщения
Вы не можете удалять свои сообщения
Вы не можете голосовать в опросах
Вы не можете прикреплять файлы к сообщениям
Вы не можете скачивать файлы