Гладиатор / Gladiator (Ридли Скотт / Ridley Scot) [2000, США, Великобритания, боевик, драма, BDRip-AVC / 60fps] (DUB)

Ответить на тему
 

kat222000 ®

Стаж: 6 лет 4 месяца

Сообщений: 608

Симпатии: 1055

- - Гладиатор / Gladiator«Генерал, ставший рабом. Раб, ставший гладиатором. Гладиатор, бросивший вызов империи» -Страна: США, Великобритания
Жанр: боевик, драма
Год выпуска: 2000
Продолжительность: 03:09:45
Перевод: Профессиональный (полное дублирование)
Субтитры: Русские (Форсированные), Русские (Полные), Английские (Полные)
Навигация по главам: есть-Режиссер: Ридли Скотт / Ridley Scot-В ролях: Рассел Кроу (Maximus), Хоакин Феникс (Commodus), Конни Нильсен (Lucilla), Оливер Рид (Proximo), Ричард Харрис (Marcus Aurelius), Дерек Джекоби (Gracchus), Джимон Хонсу (Juba), Дэвид Скофилд (Falco), Джон Шрэпнел (Gaius), Томас Арана (Quintus), Ральф Мёллер (Hagen), Спенсер Трит Кларк (Lucius)-Описание: В великой Римской империи не было военачальника, равного генералу Максимусу. Непобедимые легионы, которыми командовал этот благородный воин, боготворили его и могли последовать за ним даже в ад.
Но случилось так, что отважный Максимус, готовый сразиться с любым противником в честном бою, оказался бессилен против вероломных придворных интриг. Генерала предали и приговорили к смерти. Чудом избежав гибели, Максимус становится гладиатором.
Быстро снискав себе славу в кровавых поединках, он оказывается в знаменитом римском Колизее, на арене которого он встретится в смертельной схватке со своим заклятым врагом…- -Возраст: зрителям, достигшим 16 лет-Рейтинг MPAA: лицам до 17 лет обязательно присутствие взрослого-Качество видео: BDRip-AVC | 60 fps
Формат видео: MKV
Видео кодек: AVC
Аудио кодек: AC3
Видео: 1024x432 (2.35:1), 59,940 fps, AVC ~2 517 kbps avg, 0.095 bit/pixel
Аудио: 48 kHz, AC3 Dolby Digital, 3/2 (L,C,R,l,r) + LFE ch, ~384.00 kbps avg (Русский | DUB)-

〤 ОтчетМедиаИнфо 〤


General
Unique ID : 210891636665627582322484372220888583526 (0x9EA8407675185FD7AB7C24E59BA98D66)
Format : Matroska
Format version : Version 4 / Version 2
File size : 3.92 GiB
Duration : 3h 9mn
Overall bit rate : 2 960 Kbps
Encoded date : UTC 2016-02-14 05:51:48
Writing application : mkvmerge v8.3.0 ('Over the Horizon') 64bit
Writing library : libebml v1.3.1 + libmatroska v1.4.2
Attachment : Yes
Video
ID : 1
Format : AVC
Format/Info : Advanced Video Codec
Format profile : [email protected]
Format settings, CABAC : Yes
Format settings, ReFrames : 4 frames
Codec ID : V_MPEG4/ISO/AVC
Duration : 3h 9mn
Bit rate : 2 517 Kbps
Nominal bit rate : 2 855 Kbps
Width : 1 024 pixels
Height : 432 pixels
Display aspect ratio : 2.35:1
Frame rate : 59.940 fps
Color space : YUV
Chroma subsampling : 4:2:0
Bit depth : 8 bits
Scan type : Progressive
Bits/(Pixel*Frame) : 0.095
Stream size : 3.34 GiB (85%)
Writing library : x264 core 146 r2538 121396c
Encoding settings : cabac=1 / ref=3 / deblock=1:0:0 / analyse=0x3:0x113 / me=umh / subme=11 / psy=1 / psy_rd=1.00:0.10 / mixed_ref=1 / me_range=32 / chroma_me=1 / trellis=2 / 8x8dct=1 / cqm=0 / deadzone=21,11 / fast_pskip=0 / chroma_qp_offset=-3 / threads=12 / lookahead_threads=3 / sliced_threads=0 / nr=0 / decimate=1 / interlaced=0 / bluray_compat=0 / constrained_intra=0 / bframes=16 / b_pyramid=2 / b_adapt=2 / b_bias=0 / direct=3 / weightb=1 / open_gop=0 / weightp=2 / keyint=250 / keyint_min=25 / scenecut=40 / intra_refresh=0 / rc_lookahead=40 / rc=2pass / mbtree=1 / bitrate=2855 / ratetol=1.0 / qcomp=0.60 / qpmin=0 / qpmax=69 / qpstep=4 / cplxblur=20.0 / qblur=0.5 / vbv_maxrate=14000 / vbv_bufsize=14000 / nal_hrd=none / filler=0 / ip_ratio=1.40 / aq=1:1.00
Language : English
Default : Yes
Forced : No
Audio
ID : 2
Format : AC-3
Format/Info : Audio Coding 3
Mode extension : CM (complete main)
Codec ID : A_AC3
Duration : 3h 9mn
Bit rate mode : Constant
Bit rate : 384 Kbps
Channel(s) : 6 channels
Channel positions : Front: L C R, Side: L R, LFE
Sampling rate : 48.0 KHz
Bit depth : 16 bits
Compression mode : Lossy
Stream size : 521 MiB (13%)
Title : Дубляж
Language : Russian
Default : Yes
Forced : No
Text #1
ID : 3
Format : UTF-8
Codec ID : S_TEXT/UTF8
Codec ID/Info : UTF-8 Plain Text
Title : Форсированные
Language : Russian
Default : Yes
Forced : No
Text #2
ID : 4
Format : UTF-8
Codec ID : S_TEXT/UTF8
Codec ID/Info : UTF-8 Plain Text
Title : Полные
Language : Russian
Default : No
Forced : No
Text #3
ID : 5
Format : UTF-8
Codec ID : S_TEXT/UTF8
Codec ID/Info : UTF-8 Plain Text
Title : Полные
Language : English
Default : No
Forced : No
Menu #1
Menu #2
-

〤 Скриншоты 〤



- © Оформление by kat222000

Создавать темы 16-Фев-2016 23:22

[Профиль]  [ЛС] 

Ma4ete

Стаж: 6 лет 7 месяцев

Сообщений: 166

Симпатии: 23

kat222000, есть вопрос по поводу новых релизов,
1.Храброе сердце DRip-AVC 60fps R.G. HD-Films.mkv
2.Троя BDRip-AVC 60fps R.G. HD-Films.mkv
они есть в планах? Если да то могу помочь с раздачей и с этой помогу, а то скорость маленькая, долго качают у тебя.

Комментарий от kat222000


Спасибо за помощь!
Эти фильмы тоже будут!

Создавать темы 18-Фев-2016 23:31

[Профиль]  [ЛС] 

Ma4ete

Стаж: 6 лет 7 месяцев

Сообщений: 166

Симпатии: 23

Будешь оформлять релиз, не меняй имя файлов, они у меня с этими названиями:
1.Храброе сердце DRip-AVC 60fps R.G. HD-Films.mkv
2.Троя BDRip-AVC 60fps R.G. HD-Films.mkv
если кому интересно, могу сам оформить.

Комментарий от kat222000


Оформляйте! Все будут ЗА!

Создавать темы 19-Фев-2016 19:01

[Профиль]  [ЛС] 

f0xis0ne

Стаж: 1 год 11 месяцев

Сообщений: 7

Симпатии: 4

967928Будешь оформлять релиз, не меняй имя файлов, они у меня с этими названиями:
1.Храброе сердце DRip-AVC 60fps R.G. HD-Films.mkv
2.Троя BDRip-AVC 60fps R.G. HD-Films.mkv
если кому интересно, могу сам оформить.
И когда оформления?

Комментарий от kat222000


Ma4ete, пообещал и потерялся...)))

Создавать темы 27-Мар-2016 01:10

[Профиль]  [ЛС] 

JPT95Izat

Стаж: 1 год 6 месяцев

Сообщений: 2

aa извиняюсь уважаемые люди, я хотел спросить, не забудьте раздовать исторический фильм, завтра начну качать

Создавать темы 06-Июн-2016 19:17

[Профиль]  [ЛС] 

BrBenjamiN

Стаж: 6 лет 3 месяца

Сообщений: 25

Симпатии: 1

ПОЧЕМУ у меня на 93% остановилась? красным шрифтом ищет пиры, как будто сети нет...

Создавать темы 10-Июн-2016 00:04

[Профиль]  [ЛС] 
Показать сообщения:    
Ответить на тему

Текущее время: 23-Авг 19:01

Часовой пояс: UTC + 5



Вы не можете начинать темы
Вы не можете отвечать на сообщения
Вы не можете редактировать свои сообщения
Вы не можете удалять свои сообщения
Вы не можете голосовать в опросах
Вы не можете прикреплять файлы к сообщениям
Вы не можете скачивать файлы