Скачать Кубок Вызова (Challenge Cup): СССР-Канада (НХЛ) 1979 г. 3-я игра (TVRip) в Тас-икс (Tas-ix)

Ответить на тему
 

beshka666 ®

Стаж: 3 года 1 месяц

Сообщений: 35

Симпатии: 25

Кубок Вызова (Challenge Cup): CCCР - Сборная НXЛ, 3 игра

Вид спорта: Хоккей
Дата проведения игры: 11 февраля 1979 г.
Место проведения: США, г. Нью-Йорк, Арена "Madison Square Garden" (17,5 тыс. зрителей).
Продолжительность: 01:43:49
Комментарий: Профессиональный (двухголосый)
Язык комментариев: Русский
Комментаторы: Николай Озеров с Арены "Madison Square Garden", Евгений Майоров из студии в Останкино
Участники:
Сборная СССР: Мышкин; Васильев-Стариков, Бабинов-Ю.Федоров, Билялетдинов-Первухин; Михайлов, Петров, А.Голиков, Балдерис, Жлуктов, Капустин, Макаров, И.Гимаев, Тюменев, Скворцов, Ковин, Варнаков.
Сборная Канады (НХЛ): Чиверс; Робинсон-Сальминг, Савар-Бек, Потвин; Макдональд-Кларк-Ситтлер, Лефлер-Перро-Гейни, Хедберг-Кент Нильссон-Маркотт, Босси-Троттье-Джиллис.
Описание: Поскольку Чемпионат мира по хоккею проводился обычно в апреле, то профессионалы НХЛ не могли участвовать, у них в это время проходили игры плей-офф. И канадцы вызвали СССР на серию из трех игр. Первая игра закончилась в пользу канадцев, во второй игре СССР была сильнее и судьба кубка решалась в третьей игре.
Размер: 1090.48 Mb
Качество: TVRip
Формат: AVI
Видео: DivX 5 640x480 25fps
Аудио: MP3 48000Hz stereo 128kbps

MI

General
Format : AVI
Format/Info : Audio Video Interleave
File size : 1.06 GiB
Duration : 1h 43mn
Overall bit rate : 1 468 Kbps
Writing application : VirtualDubMod 1.5.10.1 (build 2439/release)
Writing library : VirtualDubMod build 2439/release
Video
ID : 0
Format : MPEG-4 Visual
Format settings, BVOP : Yes
Format settings, QPel : No
Format settings, GMC : No warppoints
Format settings, Matrix : Default (H.263)
Codec ID : DX50
Codec ID/Hint : DivX 5
Duration : 1h 43mn
Bit rate : 1 331 Kbps
Width : 640 pixels
Height : 480 pixels
Display aspect ratio : 4:3
Frame rate : 25.000 fps
Color space : YUV
Chroma subsampling : 4:2:0
Bit depth : 8 bits
Scan type : Progressive
Compression mode : Lossy
Bits/(Pixel*Frame) : 0.173
Stream size : 988 MiB (91%)
Audio
ID : 1
Format : MPEG Audio
Format version : Version 1
Format profile : Layer 3
Mode : Joint stereo
Codec ID : 55
Codec ID/Hint : MP3
Duration : 1h 43mn
Bit rate mode : Constant
Bit rate : 128 Kbps
Channel count : 2 channels
Sampling rate : 48.0 KHz
Compression mode : Lossy
Stream size : 95.1 MiB (9%)
Alignment : Split accross interleaves
Interleave, duration : 40 ms (1.00 video frame)
Interleave, preload duration : 500 ms

СКРИНШОТЫ



Создавать темы 16-Июн-2016 13:17

[Профиль]  [ЛС] 
Показать сообщения:    
Ответить на тему

Текущее время: 16-Окт 01:17

Часовой пояс: UTC + 5



Вы не можете начинать темы
Вы не можете отвечать на сообщения
Вы не можете редактировать свои сообщения
Вы не можете удалять свои сообщения
Вы не можете голосовать в опросах
Вы не можете прикреплять файлы к сообщениям
Вы не можете скачивать файлы