Пятница (Евгений Шелякин) [2016, Комедия, WEB-DLRip-AVC]

Ответить на тему
 

Admiral ®

Стаж: 3 года 11 месяцев

Сообщений: 312

Симпатии: 347

Пятница- Год выхода: 2016
Жанр: Комедия
Страна: Россия
Студия: RSS Production

Продолжительность
: 01:26:54
Перевод: Не требуется-Режиссер: Евгений Шелякин
В ролях: Данила Козловский, Настасья Самбурская, Катерина Шпица, Павел Деревянко, Кирилл Плетнёв, Евгения Брик (Хиривская), Антон Шагин, Ян Цапник, Евгений Стычкин, Сергей Бурунов, Сергей Чирков, Аристарх Венес, Максим Емельянов, Никита Павленко, Михаил Полицеймако, Алексей Гришин, Антон Шурцев, Айгуль Мильштейн, Лилия Лаврова, Ирина Бутанаева, Елена Лотова, Александр Зельский, Наталья Бардо, Евгения Гирзекорн, Дарья Пугачева, Эммануил Виторган, Анжелика Каширина, Юлия Чиплиева-О фильме: Что если азартный миллионер на одну ночь станет официантом, офисный лузер будет звездой самой яркой вечеринки, а двум «заклятым» друзьям придется искать кенгуру ночью в подмосковном лесу? У каждого своя пятница! Как она закончится для каждого, знает только утро субботы ;)-Качество: WEB-DLRip-AVC
Формат: MKV
Видео: MPEG-4 AVC, 2025 Кбит/с, 1024x428
Аудио: AC3, 6 ch, 384 Кбит/с
-

Скриншоты



-

MI

General
Unique ID : 174057186028496566194891891184949609705 (0x82F231D54A64147789749B4B88C144E9)
Format : Matroska
Format version : Version 4 / Version 2
File size : 1.46 GiB
Duration : 1h 26mn
Overall bit rate : 2 410 Kbps
Movie name : Friday 2016 from ExKinoRay
Encoded date : UTC 2016-04-01 01:47:57
Writing application : mkvmerge v6.6.0 ('The Edge Of The In Between') built on Dec 1 2013 17:55:00
Writing library : libebml v1.3.0 + libmatroska v1.4.1
Video
ID : 1
Format : AVC
Format/Info : Advanced Video Codec
Format profile : [email protected]
Format settings, CABAC : Yes
Format settings, ReFrames : 10 frames
Codec ID : V_MPEG4/ISO/AVC
Duration : 1h 26mn
Bit rate : 2 025 Kbps
Width : 1 024 pixels
Height : 428 pixels
Display aspect ratio : 2.40:1
Frame rate mode : Constant
Frame rate : 24.000 fps
Color space : YUV
Chroma subsampling : 4:2:0
Bit depth : 8 bits
Scan type : Progressive
Bits/(Pixel*Frame) : 0.193
Stream size : 1.20 GiB (82%)
Title : Enigma
Writing library : x264 core 142 r2431 ac76440
Encoding settings : cabac=1 / ref=10 / deblock=1:-2:-2 / analyse=0x3:0x113 / me=umh / subme=10 / psy=1 / psy_rd=1.05:0.15 / mixed_ref=1 / me_range=32 / chroma_me=1 / trellis=2 / 8x8dct=1 / cqm=0 / deadzone=21,11 / fast_pskip=0 / chroma_qp_offset=-3 / threads=12 / lookahead_threads=3 / sliced_threads=0 / nr=0 / decimate=0 / interlaced=0 / bluray_compat=0 / constrained_intra=0 / bframes=10 / b_pyramid=2 / b_adapt=2 / b_bias=0 / direct=3 / weightb=1 / open_gop=0 / weightp=2 / keyint=240 / keyint_min=24 / scenecut=40 / intra_refresh=0 / rc=2pass / mbtree=0 / bitrate=2025 / ratetol=1.0 / qcomp=0.60 / qpmin=0 / qpmax=51 / qpstep=4 / cplxblur=20.0 / qblur=0.5 / ip_ratio=1.40 / pb_ratio=1.30 / aq=1:1.00
Default : Yes
Forced : No
Color primaries : BT.709
Transfer characteristics : BT.709
Matrix coefficients : BT.709
Audio
ID : 2
Format : AC-3
Format/Info : Audio Coding 3
Mode extension : CM (complete main)
Format settings, Endianness : Big
Codec ID : A_AC3
Duration : 1h 26mn
Bit rate mode : Constant
Bit rate : 384 Kbps
Channel(s) : 6 channels
Channel positions : Front: L C R, Side: L R, LFE
Sampling rate : 48.0 KHz
Bit depth : 16 bits
Compression mode : Lossy
Stream size : 239 MiB (16%)
Language : Russian
Default : Yes
Forced : No


Последний раз редактировалось: Admiral (2016-07-02 21:20), всего редактировалось 1 раз

Создавать темы 02-Июл-2016 20:46

[Профиль]  [ЛС] 

Топик был перенесен из форума Фильмы за 2016 в форум HD-AVC
ruhal

Создавать темы 03-Июл-2016 21:01

 
Показать сообщения:    
Ответить на тему

Текущее время: 15-Дек 02:03

Часовой пояс: UTC + 5



Вы не можете начинать темы
Вы не можете отвечать на сообщения
Вы не можете редактировать свои сообщения
Вы не можете удалять свои сообщения
Вы не можете голосовать в опросах
Вы не можете прикреплять файлы к сообщениям
Вы не можете скачивать файлы