Пиковая дама: Черный обряд (Святослав Подгаевский) [2015, Ужасы, WEB-DLRip]

Ответить на тему
 

UZM ®

Стаж: 5 лет 4 месяца

Сообщений: 169

Симпатии: 189

Пиковая дама: Черный обряд
Жанр: Ужасы
Год выпуска: 2015
Продолжительность: 01:32:51
Режиссёр: Святослав Подгаевский
В ролях: Алина Бабак, Валентин Садики, Валерия Дмитриева, Владимир Селезнёв, Евгения Лоза, Игорь Хрипунов, Максим Стоянов, Мария Фомина, Наталья Домерецкая, Сергей Походаев
Описание: С древних времен считается, что любое зеркало может стать порталом в мир мертвых. Одним из старейших мистических ритуалов с зеркалом является обряд вызова Пиковой Дамы. Четверо подростков в шутку решают призвать ее, но даже не подозревают, на какие ужасы они обрекли себя и своих близких. Теперь мстительный призрак не остановится, пока не получит их души.
Качество видео: WEB-DLRip
Формат видео: AVI
Видео: Xvid 720x400 24fps 1721kbps
Аудио: AC3 48,0Hz 6ch 384kbps

MediaInfo

General
Complete name : D:\Кино\PikoVaja.dama.2015.WEB-DLRip.avi
Format : AVI
Format/Info : Audio Video Interleave
File size : 1.37 GiB
Duration : 1h 32mn
Overall bit rate : 2 115 Kbps
Writing application : VirtualDubMod 1.5.10.3 | www.virtualdub-fr.org || (build 2550/release)
Writing library : VirtualDubMod build 2550/release
Video
ID : 0
Format : MPEG-4 Visual
Format profile : Advanced [email protected]
Format settings, BVOP : 2
Format settings, QPel : No
Format settings, GMC : No warppoints
Format settings, Matrix : Default (MPEG)
Codec ID : XVID
Codec ID/Hint : XviD
Duration : 1h 32mn
Bit rate : 1 722 Kbps
Width : 720 pixels
Height : 400 pixels
Display aspect ratio : 16:9
Frame rate : 24.000 fps
Color space : YUV
Chroma subsampling : 4:2:0
Bit depth : 8 bits
Scan type : Progressive
Compression mode : Lossy
Bits/(Pixel*Frame) : 0.249
Stream size : 1.12 GiB (81%)
Writing library : XviD 1.2.1 (UTC 2008-12-04)
Audio
ID : 1
Format : AC-3
Format/Info : Audio Coding 3
Mode extension : CM (complete main)
Format settings, Endianness : Big
Codec ID : 2000
Duration : 1h 32mn
Bit rate mode : Constant
Bit rate : 384 Kbps
Channel(s) : 6 channels
Channel positions : Front: L C R, Side: L R, LFE
Sampling rate : 48.0 KHz
Compression mode : Lossy
Stream size : 255 MiB (18%)
Alignment : Split accross interleaves
Interleave, duration : 42 ms (1.00 video frame)
Interleave, preload duration : 500 ms

Скриншот c названием фильма

Скриншоты

,
,
,


Последний раз редактировалось: UZM (2015-10-21 21:23), всего редактировалось 1 раз

Создавать темы 21-Окт-2015 20:54

[Профиль]  [ЛС] 

MaKs_KZ

Стаж: 5 лет 11 месяцев

Сообщений: 55

Симпатии: 3

Дайте-ка газку, ребят...!)

Создавать темы 04-Июл-2016 11:05

[Профиль]  [ЛС] 
Показать сообщения:    
Ответить на тему

Текущее время: 20-Окт 03:05

Часовой пояс: UTC + 5



Вы не можете начинать темы
Вы не можете отвечать на сообщения
Вы не можете редактировать свои сообщения
Вы не можете удалять свои сообщения
Вы не можете голосовать в опросах
Вы не можете прикреплять файлы к сообщениям
Вы не можете скачивать файлы