Перевозчик: Наследие / The Transporter Refueled (Камиль Деламарр) [2015, Франция, Китай, боевик, триллер, криминал, HDRip] [Лицензия]

Ответить на тему
 

ruhal ®

Стаж: 2 года 6 месяцев

Сообщений: 1181

Симпатии: 1836

-Перевозчик: Наследие / The Transporter Refueled- Страна: Франция, Китай
Жанр: боевик, триллер, криминал
Год выпуска: 2015
Продолжительность: 01:36:22-Перевод: Профессиональный (дублированный) [Лицензия]
Cубтитры: нет-Режиссер: Камиль Деламарр-В ролях: Эд Скрейн, Рэй Стивенсон, Лоан Шабаноль, Габриэлла Райт, Татьяна Пайкович,
Венься Ю, Радивойе Буквич, Ноэми Ленуар, Юрий Колокольников, Ленн Кудрявицки-Описание: Фрэнк Мартин — самый высококвалифицированный перевозчик,
которого только можно нанять за деньги. Ставки выше, технологии поднялись на более высокий уровень,
но правила те же: никогда не изменять условия сделки, никаких имен и никогда не открывать груз.
Когда Фрэнка нанимает хитроумная красотка Анна и ее три очаровательные сообщницы,
он быстро выясняет, что его водят за нос. Анна и ее команда похитили его отца,
чтобы заставить Фрэнка помочь им разобраться с группой безжалостных торговцев людьми.-Качество видео: HDRip
Формат видео: AVI
Видео: Xvid 720x304 23.976fps
Аудио: Dolby AC3 48000Hz 6ch 448kbps
-

MediaInfo

General
Complete name : E:\Films\The.Transporter.Refueled.2015.D.HDRip.1.46GB.avi
Format : AVI
Format/Info : Audio Video Interleave
File size : 1.46 GiB
Duration : 1h 35mn
Overall bit rate : 2 172 Kbps
Writing application : VirtualDubMod 1.5.10.2 (build 2540/release)
Writing library : VirtualDubMod build 2540/release
Video
ID : 0
Format : MPEG-4 Visual
Format profile : Advanced [email protected]
Format settings, BVOP : 2
Format settings, QPel : No
Format settings, GMC : No warppoints
Format settings, Matrix : Default (MPEG)
Codec ID : XVID
Codec ID/Hint : XviD
Duration : 1h 35mn
Source duration : 50mn 15s
Bit rate : 1 653 Kbps
Width : 720 pixels
Height : 304 pixels
Display aspect ratio : 2.35:1
Frame rate : 23.976 fps
Color space : YUV
Chroma subsampling : 4:2:0
Bit depth : 8 bits
Scan type : Progressive
Compression mode : Lossy
Bits/(Pixel*Frame) : 0.315
Stream size : 594 MiB (40%)
Writing library : XviD 1.2.1 (UTC 2008-12-04)
Audio
ID : 1
Format : AC-3
Format/Info : Audio Coding 3
Mode extension : CM (complete main)
Format settings, Endianness : Big
Codec ID : 2000
Duration : 1h 35mn
Source duration : 50mn 15s
Bit rate mode : Constant
Bit rate : 448 Kbps
Channel(s) : 6 channels
Channel positions : Front: L C R, Side: L R, LFE
Sampling rate : 48.0 KHz
Bit depth : 16 bits
Compression mode : Lossy
Stream size : 161 MiB (11%)
Alignment : Split accross interleaves
Interleave, duration : 42 ms (1.00 video frame)
Interleave, preload duration : 500 ms

Скриншот c названием фильма

Скриншоты






Последний раз редактировалось: ruhal (2016-02-14 12:28), всего редактировалось 2 раз(а)

Создавать темы 11-Дек-2015 23:08

[Профиль]  [ЛС] 

ruhal ®

Стаж: 2 года 6 месяцев

Сообщений: 1181

Симпатии: 1836

Прошу модеров прилепить

Создавать темы 11-Дек-2015 23:09

[Профиль]  [ЛС] 

dili2709

Стаж: 6 лет 4 месяца

Сообщений: 4

Симпатии: 3

У меня скачка остановила на 81,4 %. Прошу у модераторов исправить.

Создавать темы 12-Дек-2015 10:50

[Профиль]  [ЛС] 

ruhal ®

Стаж: 2 года 6 месяцев

Сообщений: 1181

Симпатии: 1836

961876У меня скачка остановила на 81,4 %. Прошу у модераторов исправить.
а они тут причем?

Создавать темы 12-Дек-2015 11:53

[Профиль]  [ЛС] 

teraflop

Стаж: 5 лет

Сообщений: 1

Симпатии: 4

фильм норм кто смотрел?

Создавать темы 14-Дек-2015 12:12

[Профиль]  [ЛС] 

mobikz

Стаж: 6 лет 11 месяцев

Сообщений: 30

Симпатии: 10

Классный фильм стоит посмотреть

Создавать темы 16-Дек-2015 07:57

[Профиль]  [ЛС] 

Sanjarbek8585

Стаж: 3 года 10 месяцев

Сообщений: 8

Симпатии: 1

скорост дайте пож.

Создавать темы 04-Июл-2016 11:49

[Профиль]  [ЛС] 
Показать сообщения:    
Ответить на тему

Текущее время: 24-Окт 16:19

Часовой пояс: UTC + 5



Вы не можете начинать темы
Вы не можете отвечать на сообщения
Вы не можете редактировать свои сообщения
Вы не можете удалять свои сообщения
Вы не можете голосовать в опросах
Вы не можете прикреплять файлы к сообщениям
Вы не можете скачивать файлы