Дивергент, глава 3: За стеной / Allegiant (Роберт Швентке) [2016, США, Фантастика, боевик, приключения, WEB-DLRip] [iTunes]

Ответить на тему
 

ruhal ®

Стаж: 2 года 8 месяцев

Сообщений: 1181

Симпатии: 1836

- -Дивергент, глава 3: За стеной / Allegiant- - Страна: США
Жанр: Фантастика, боевик, приключения
Год выпуска: 2016
Продолжительность: 02:00:20-Перевод: Профессиональный (дублированный) [iTunes]
Cубтитры: нет-Режиссер: Роберт Швентке-В ролях: Шэйлин Вудли, Тео Джеймс, Энсел Элгорт, Зои Кравиц, Майлз Теллер, Джефф Дэниелс, Наоми Уоттс, Мэгги Кью, Билл Скарсгард, Кейнан Лонсдейл-Описание: Трис и Фор впервые покидают город и своих близких и оказываются в опасном мире за стеной, отделяющей Чикаго, где им открывается шокирующая правда.-Качество видео: WEB-DLRip
Формат видео: AVI
Видео: Xvid 720x400 24fps 1232kbps
Аудио:Dolby AC3 48000Hz 6ch 384kbps
-

MediaInfo

General
Complete name : E:\Films\Allegiant.avi
Format : AVI
Format/Info : Audio Video Interleave
File size : 1.37 GiB
Duration : 2h 0mn
Overall bit rate : 1 626 Kbps
Writing application : VirtualDubMod 1.5.10.2 (build 2540/release)
Writing library : VirtualDubMod build 2540/release
Video
ID : 0
Format : MPEG-4 Visual
Format profile : Advanced [email protected]
Format settings, BVOP : 2
Format settings, QPel : No
Format settings, GMC : No warppoints
Format settings, Matrix : Custom
Codec ID : XVID
Codec ID/Hint : XviD
Duration : 2h 0mn
Bit rate : 1 232 Kbps
Width : 720 pixels
Height : 400 pixels
Display aspect ratio : 16:9
Frame rate : 24.000 fps
Color space : YUV
Chroma subsampling : 4:2:0
Bit depth : 8 bits
Scan type : Progressive
Compression mode : Lossy
Bits/(Pixel*Frame) : 0.178
Stream size : 1.04 GiB (76%)
Writing library : XviD 1.2.1 (UTC 2008-12-04)
Audio
ID : 1
Format : AC-3
Format/Info : Audio Coding 3
Mode extension : CM (complete main)
Format settings, Endianness : Big
Codec ID : 2000
Duration : 2h 0mn
Bit rate mode : Constant
Bit rate : 384 Kbps
Channel(s) : 6 channels
Channel positions : Front: L C R, Side: L R, LFE
Sampling rate : 48.0 KHz
Bit depth : 16 bits
Compression mode : Lossy
Stream size : 331 MiB (24%)
Alignment : Split accross interleaves
Interleave, duration : 42 ms (1.00 video frame)
Interleave, preload duration : 500 ms

Скриншот c названием фильма

Скриншоты





Последний раз редактировалось: ruhal (2016-09-01 11:38), всего редактировалось 1 раз

Создавать темы 17-Июн-2016 06:28

[Профиль]  [ЛС] 

Богдан-net

Стаж: 1 год 7 месяцев

Сообщений: 66

Симпатии: 8

ну как фильмец стоит время уделять на просмотр

Комментарий от ruhal


Ну если видел предыдущие части, то определенно стоит

Создавать темы 18-Июн-2016 11:04

[Профиль]  [ЛС] 

adilek

Стаж: 1 год 9 месяцев

Сообщений: 3

норм фильм

Создавать темы 18-Июн-2016 13:36

[Профиль]  [ЛС] 

ruhal ®

Стаж: 2 года 8 месяцев

Сообщений: 1181

Симпатии: 1836

Кому интересно:
1 Часть - http://tas-ix.me/viewtopic.php?t=97058
2 Часть - http://tas-ix.me/viewtopic.php?t=108135

Создавать темы 18-Июн-2016 20:25

[Профиль]  [ЛС] 

Богдан-net

Стаж: 1 год 7 месяцев

Сообщений: 66

Симпатии: 8

спасибо за совет и за фильм посмотрим и оценим ab

Создавать темы 19-Июн-2016 00:46

[Профиль]  [ЛС] 

kalibro0909

Стаж: 2 года

Сообщений: 2

как поднять рейтинг свой

Создавать темы 25-Июн-2016 23:38

[Профиль]  [ЛС] 

Admin

Стаж: 5 лет 11 месяцев

Сообщений: 580

Симпатии: 106

kalibro0909, нужно больше раздавать скачанный материал..

Создавать темы 26-Июн-2016 00:26

[Профиль]  [ЛС] 

sam175

Стаж: 1 год 9 месяцев

Сообщений: 33

Симпатии: 2

звали? Р А З Д А Ю !!!)

Создавать темы 27-Июн-2016 13:37

[Профиль]  [ЛС] 

vadumb

Стаж: 7 лет 7 месяцев

Сообщений: 50

Симпатии: 3

Отличные фильмы, смотрятся легко, сюжет логичный. Просмотра точно стоит

Создавать темы 02-Июл-2016 10:37

[Профиль]  [ЛС] 

thomasz

Стаж: 4 года 5 месяцев

Сообщений: 40

Симпатии: 4

фильмы для девочек

Создавать темы 16-Июл-2016 19:07

[Профиль]  [ЛС] 
Показать сообщения:    
Ответить на тему

Текущее время: 16-Дек 21:35

Часовой пояс: UTC + 5



Вы не можете начинать темы
Вы не можете отвечать на сообщения
Вы не можете редактировать свои сообщения
Вы не можете удалять свои сообщения
Вы не можете голосовать в опросах
Вы не можете прикреплять файлы к сообщениям
Вы не можете скачивать файлы