Вдвоем на льдине (Валерий Игнатьев) [2015, Россия, мелодрама, WEB-DLRip] | iTunes

Ответить на тему
 

kat222000 ®

Стаж: 6 лет 6 месяцев

Сообщений: 608

Симпатии: 1055

Вдвоем на льдине Страна: Россия
Жанр: мелодрама
Год выпуска: 2015
Продолжительность: 01:23:48
Перевод: Оригинал | iTunes
Субтитры: нет-Режиссер: Валерий Игнатьев-В ролях: Владимир Дыховичный, Елизавета Саксина, Валерий Баринов, Марианна Шульц, Евгений Редько, Александр Бобров, Полина Козловская, Евгения Каверау, Иван Шмаков, Диана Енакаева-Описание: Юный пианист Роман Осин попадает в онкологическую клинику с диагнозом Саркома Юинга, где встречает девочку Юлю, талантливую художницу. Между ними возникает симпатия, все свободное время они стараются проводить вместе. Забыв о своих диагнозах, они живут как обычные молодые люди. Но однажды болезнь напомнила о себе. Рома, понимает, что состояние Юли ухудшается и медицина здесь бессильна. Веря в силу музыки, Рома решает исполнить Второй концерт Рахманинова в клинике, надеясь на то, что это может помочь Юле. Это история о первой любви, о самопожертвовании ради любимого человека, о неумирающей надежде…- -Качество видео: WEB-DLRip
Формат видео: AVI
Видео кодек: XviD
Аудио кодек: AC3
Видео: 720x384 (1.85:1), 25.000 fps, XviD build 73 ~1 942 kbps avg, 0.281 bit/pixel
Аудио: 48 kHz, AC3 Dolby Digital, 3/2 (L,C,R,l,r) + LFE ch, ~384.00 kbps avg (Русский | Оригинал)-

〤 ОтчетМедиаИнфо 〤

General
Format : AVI
Format/Info : Audio Video Interleave
File size : 1.37 GiB
Duration : 1h 23mn
Overall bit rate : 2 336 Kbps
Writing application : VirtualDubMod 1.5.10.3 | www.virtualdub-fr.org || (build 2550/release)
Writing library : VirtualDubMod build 2550/release
Video
ID : 0
Format : MPEG-4 Visual
Format profile : Advanced [email protected]
Format settings, BVOP : 2
Format settings, QPel : No
Format settings, GMC : No warppoints
Format settings, Matrix : Default (MPEG)
Codec ID : XVID
Codec ID/Hint : XviD
Duration : 1h 23mn
Bit rate : 1 942 Kbps
Width : 720 pixels
Height : 384 pixels
Display aspect ratio : 1.85:1
Frame rate : 25.000 fps
Color space : YUV
Chroma subsampling : 4:2:0
Bit depth : 8 bits
Scan type : Progressive
Compression mode : Lossy
Bits/(Pixel*Frame) : 0.281
Stream size : 1.14 GiB (83%)
Writing library : XviD 1.2.1 (UTC 2008-12-04)
Audio
ID : 1
Format : AC-3
Format/Info : Audio Coding 3
Mode extension : CM (complete main)
Format settings, Endianness : Big
Codec ID : 2000
Duration : 1h 23mn
Bit rate mode : Constant
Bit rate : 384 Kbps
Channel(s) : 6 channels
Channel positions : Front: L C R, Side: L R, LFE
Sampling rate : 48.0 KHz
Compression mode : Lossy
Stream size : 230 MiB (16%)
Alignment : Split accross interleaves
Interleave, duration : 40 ms (1.00 video frame)
Interleave, preload duration : 500 ms
-

〤 Скриншоты 〤

- © Оформление by kat222000


Последний раз редактировалось: kat222000 (2016-07-17 22:23), всего редактировалось 1 раз

Создавать темы 17-Июл-2016 22:22

[Профиль]  [ЛС] 

Топик был перенесен из форума Тестовый форум в форум Фильмы за 2015
kat222000

Создавать темы 17-Июл-2016 22:23

 
Показать сообщения:    
Ответить на тему

Текущее время: 21-Окт 09:54

Часовой пояс: UTC + 5



Вы не можете начинать темы
Вы не можете отвечать на сообщения
Вы не можете редактировать свои сообщения
Вы не можете удалять свои сообщения
Вы не можете голосовать в опросах
Вы не можете прикреплять файлы к сообщениям
Вы не можете скачивать файлы