Нимфоманка: Часть 2 / Nymphomaniac: Vol. II (Ларс фон Триер / Lars von Trier) [2013, Дания, Германия, Франция, Бельгия, драма, BDRip (720p)] MVO (HamsterStudio) | Режиссёрская версия

Ответить на тему
 

kat222000 ®

Стаж: 6 лет 7 месяцев

Сообщений: 608

Симпатии: 1055

Нимфоманка: Часть 2 / Nymphomaniac: Vol. II«Забудь о любви» Страна: Дания, Германия, Франция, Бельгия
Жанр: драма
Год выпуска: 2013
Продолжительность: 02:58:28
Перевод: Любительское (многоголосый закадровый) (HamsterStudio)
Субтитры: Русские
Навигация по главам: нет
ПРИМЕЧАНИЕ: ПРИСУТСТВУЕТ РЕКЛАМА!-Режиссер: Ларс фон Триер / Lars von Trier-В ролях: Шарлотта Генсбур, Стэйси Мартин, Стеллан Скарсгард, Шайа ЛаБаф, Кристиан Слэйтер, Ума Турман, Софи Кеннеди Кларк, Йенс Альбинус, Николас Бро, Фелисити Гилберт-Описание: Продолжение истории нимфоманки по имени Джо, чья жизнь была полна множества эротических переживаний, впечатлений и опытов. Она рассказывает о себе немолодому одинокому холостяку Селигману, который наткнулся на нее, избитую и находящуюся в полубессознательном состоянии, в переулке, доставил к себе домой и выходил…- -Возраст: зрителям, достигшим 18 лет-Рейтинг MPAA: лицам до 17 лет обязательно присутствие взрослого-Качество видео: BDRip (720p)
Формат видео: MKV
Видео кодек: AVC
Аудио кодек: AC3
Видео: 1280x720 (1.78:1), 25.000 fps, AVC ~1 738 kbps avg, 0.075 bit/pixel
Аудио: 48 kHz, AC3 Dolby Digital, 2/0 (L,R), ~192.00 kbps avg (Русский | MVO)-

〤 Награды и номинации 〤

• 2014 — премия «Бодил» за лучшую женскую роль (Шарлотта Генсбур), а также 5 номинаций: лучший фильм (Ларс фон Триер), лучшая мужская роль (Стеллан Скарсгорд), лучшая женская роль (Стэйси Мартин), лучшая женская роль второго плана (Ума Турман), лучшая мужская роль второго плана (Джейми Белл).
• 2014 — номинация на кинопремию Северного Совета (Ларс фон Триер).
• 2014 — 3 номинации на премию Европейской киноакадемии: лучший фильм, лучшая мужская роль (Стеллан Скарсгард), лучшая женская роль (Шарлотта Генсбур).
-

〤 Знаете ли вы что...: 〤

• Основные съемки проходили между 28 августа и 9 ноября 2012 года в Кельне и Хильден, Германия, и в Бельгии.
• Для получения роли в фильме Шайю ЛаБафа попросили прислать фотографию его пениса. Он впоследствии решил отправить личные записи с постельными сценами его и его подруги, чтобы убедить Ларса фон Триера взять его на роль.
• Шайа ЛаБаф подтвердил в интервью новостной программе MTV, что он будет участвовать в немоделируемых половых отношениях в фильме.
• Николь Кидман должна была играть роль миссис Эйч, однако она выбыла из проекта из-за несовпадения рабочих графиков.
• «Нимфоманка» — заключительная часть «трилогии депрессии», также включающей фильмы «Антихрист» (2009) и «Меланхолия» (2011).
• Лиам Хемсворт отказался от роли Джерома.
• В Дании была выпущена полная пятичасовая версия фильма.
• Одним из требований Ларс фон Триера к его актерам стал полный отказ от внешних источников информации, будь то интернет, пресса или телевидение. Режиссер настоятельно попросил участников проекта полностью сосредоточиться на съемках.
Ошибки в фильме:
• По сюжету действие фильма разворачивается в Англии, но в квартире Джо европейские электрические розетки на стенах. Точно такие же розетки можно заметить в больничной палате, куда она приходит навестить своего отца.
• В немецком поезде, где две девушки подцепляют незнакомцев, контролер носит униформу британских железных дорог 1970-х годов.
-

〤 HamsterStudio 〤

Озвучка: Алексей Соловьёв, Анастасия Снегирева, Андрей Жариков и Ариса Лебедева
Монтаж и сведение звука: Роман Мырон
-

〤 ОтчетМедиаИнфо 〤

General
Unique ID : 178602985021404272427541313644707597858 (0x865DAF0706CC69A68B3E86BE6AAA4E22)
Complete name : D:\Фильмы\Арт Хаус\Nymphomaniac.BDRip (720p).HamsterStudio.org\Nymphomaniac.part2.BDRip (720p).HamsterStudio.org.mkv
Format : Matroska
Format version : Version 4 / Version 2
File size : 2.45 GiB
Duration : 2h 58mn
Overall bit rate mode : Variable
Overall bit rate : 1 969 Kbps
Encoded date : UTC 2016-01-10 18:03:35
Writing application : mkvmerge v7.8.0 ('River Man') 64bit built on Mar 27 2015 16:31:37
Writing library : libebml v1.3.1 + libmatroska v1.4.2
DURATION : 02:58:27.616000000
NUMBER_OF_FRAMES : 334613
NUMBER_OF_BYTES : 256982784
_STATISTICS_WRITING_APP : mkvmerge v7.8.0 ('River Man') 64bit built on Mar 27 2015 16:31:37
_STATISTICS_WRITING_DATE_UTC : 2016-01-10 18:03:35
_STATISTICS_TAGS : BPS DURATION NUMBER_OF_FRAMES NUMBER_OF_BYTES
Video
ID : 1
Format : AVC
Format/Info : Advanced Video Codec
Format profile : [email protected]
Format settings, CABAC : Yes
Format settings, ReFrames : 3 frames
Format settings, GOP : M=4, N=15
Codec ID : V_MPEG4/ISO/AVC
Duration : 2h 58mn
Bit rate mode : Variable
Bit rate : 1 738 Kbps
Maximum bit rate : 16.0 Mbps
Width : 1 280 pixels
Height : 720 pixels
Display aspect ratio : 16:9
Frame rate mode : Constant
Frame rate : 25.000 fps
Standard : NTSC
Color space : YUV
Chroma subsampling : 4:2:0
Bit depth : 8 bits
Scan type : Progressive
Bits/(Pixel*Frame) : 0.075
Stream size : 2.17 GiB (88%)
Default : Yes
Forced : No
Color range : Limited
Audio
ID : 3
Format : AC-3
Format/Info : Audio Coding 3
Mode extension : CM (complete main)
Format settings, Endianness : Big
Codec ID : A_AC3
Duration : 2h 58mn
Bit rate mode : Constant
Bit rate : 192 Kbps
Channel(s) : 2 channels
Channel positions : Front: L R
Sampling rate : 48.0 KHz
Compression mode : Lossy
Stream size : 245 MiB (10%)
Title : HamsterStudio.org
Language : Russian
Default : Yes
Forced : Yes
Text
ID : 2
Format : ASS
Codec ID : S_TEXT/ASS
Codec ID/Info : Advanced Sub Station Alpha
Compression mode : Lossless
Default : Yes
Forced : Yes
-

〤 Скриншоты 〤



© Оформление by kat222000

Создавать темы 04-Июн-2016 15:11

[Профиль]  [ЛС] 

Няша

Стаж: 2 года

Сообщений: 2

kat222000, Уважаемый а третья часть будет? вот не помню смотрел я вторую часть или нет, щас лс вам напишу.

Комментарий от kat222000


Про третью часть не слышно!

Создавать темы 04-Июн-2016 15:34

[Профиль]  [ЛС] 

cnn

Стаж: 1 год 10 месяцев

Сообщений: 29

Симпатии: 2

kat222000, спасибо за фильм, особенно музыка по моему Ramstein в начале 2 части просто супер

Создавать темы 04-Июн-2016 15:39

[Профиль]  [ЛС] 

luckyashot

Стаж: 5 лет 6 месяцев

Сообщений: 29

Симпатии: 1

kat222000, сногсшибательного релиза не будет ?

Создавать темы 05-Июн-2016 00:20

[Профиль]  [ЛС] 

Топик был перенесен из форума Кино, Видео и ТВ (Архив) в форум Арт-хаус и авторское кино
kat222000

Создавать темы 17-Июн-2016 23:42

 

Shoxruxxoja

Стаж: 4 года

Сообщений: 20

Симпатии: 5

у меня тупо трафик съело, не скачивайте

Информация от kat222000


Настройка uTorrent и устранение утечки трафика
http://tas-ix.me/viewtopic.php?t=45270

Создавать темы 21-Июл-2016 11:46

[Профиль]  [ЛС] 

BlackJoker

Стаж: 2 года 3 месяца

Сообщений: 14

Симпатии: 3

Раздавайте пожалуйста нормально. Раздающие как бы есть, а скорости как бы нету:)

Создавать темы 01-Май-2017 17:27

[Профиль]  [ЛС] 

skynet

Стаж: 5 лет 10 месяцев

Сообщений: 296

Симпатии: 6

992799Раздавайте пожалуйста нормально. Раздающие как бы есть, а скорости как бы нету:)
присоеденяюсь. Плюсуйте скорости пжл НАРОД!!!

Создавать темы 15-Июл-2017 15:26

[Профиль]  [ЛС] 
Показать сообщения:    
Ответить на тему

Текущее время: 24-Ноя 21:50

Часовой пояс: UTC + 5



Вы не можете начинать темы
Вы не можете отвечать на сообщения
Вы не можете редактировать свои сообщения
Вы не можете удалять свои сообщения
Вы не можете голосовать в опросах
Вы не можете прикреплять файлы к сообщениям
Вы не можете скачивать файлы