Репортерша / Whiskey Tango Foxtrot (Гленн Фикарра / Glenn Ficarra, Джон Рекуа / John Requa) [2016, США, драма, комедия, военный, биография, BDRip-AVC] (Dub) (Sub Rus) | iTunes

Ответить на тему
 

Grock ®

Стаж: 6 лет 8 месяцев

Сообщений: 637

Симпатии: 113

-Репортерша / Whiskey Tango Foxtrot
Название: Репортерша
Оригинальное название: Whiskey Tango Foxtrot
Год выпуска: 2016
Страна: США
Жанр: драма, комедия, военный, биография
Озвучивание: Дубляж [iTunes]
Режиссер: Гленн Фикарра / Glenn Ficarra, Джон Рекуа / John Requa
В ролях: Тина Фей, Марго Робби, Мартин Фриман, Альфред Молина, Кристофер Эбботт, Билли Боб Торнтон, Николас Браун, Стивен Пикок, Шейла Ванд, Эван Йоникит, Фахим Анвар, Джош Чарльз
Описание: Фильм расскажет о деятельности журналистки в качестве репортёра в Афганистане и Пакистане, после прибытия туда в 2002 году.
Продолжительность: 01:51:48
Cубтитры: русские (форсированные)
Навигация по главам: есть
Качество: BDRip-AVC
Формат: MKV
Видео данные: 1417 Кбит/сек, 896x504 (16:9), 23,976 кадр/сек, AVC
Аудио данные: русский, 384 Кбит/сек, 48 КГц, 16 бит, 5.1, AC3

MediaInfo

Complete name : C:Downloads\Репортерша.2016.D.BDRip-AVC.mkv
Format : Matroska
File size : 1.41 GiB
Duration : 1h 51mn
Overall bit rate : 1 802 Kbps
Movie name : Whiskey Tango Foxtrot (2016) (Rip by stalkerok)
Encoded date : UTC 2016-07-21 09:32:34
Writing application : mkvmerge v8.6.1 ('Flying') 64bit
Writing library : libebml v1.3.3 + libmatroska v1.4.4
Video
ID : 1
Format : AVC
Format/Info : Advanced Video Codec
Format profile : [email protected]
Format settings, CABAC : Yes
Format settings, ReFrames : 14 frames
Codec ID : V_MPEG4/ISO/AVC
Duration : 1h 51mn
Bit rate : 1 417 Kbps
Width : 896 pixels
Height : 504 pixels
Display aspect ratio : 16:9
Frame rate : 23.976 fps
Color space : YUV
Chroma subsampling : 4:2:0
Bit depth : 8 bits
Scan type : Progressive
Bits/(Pixel*Frame) : 0.131
Stream size : 1.08 GiB (77%)
Title : Whiskey Tango Foxtrot (2016) (Rip by stalkerok)
Writing library : x264 core 148 r2705+54 9f484c1 t_mod_Custom [[email protected] X86_64]
Encoding settings : cabac=1 / ref=14 / deblock=1:-3:-2 / analyse=0x3:0x133 / me=umh / subme=10 / psy=1 / fade_compensate=0.00 / psy_rd=1.00:0.00 / mixed_ref=1 / me_range=32 / chroma_me=1 / trellis=2 / 8x8dct=1 / cqm=0 / deadzone=21,11 / fast_pskip=0 / chroma_qp_offset=-2 / threads=12 / lookahead_threads=3 / sliced_threads=0 / nr=0 / decimate=0 / interlaced=0 / bluray_compat=0 / constrained_intra=0 / fgo=0 / bframes=14 / b_pyramid=2 / b_adapt=2 / b_bias=0 / direct=3 / weightb=1 / open_gop=0 / weightp=2 / keyint=240 / keyint_min=23 / scenecut=40 / intra_refresh=0 / rc_lookahead=60 / rc=2pass / mbtree=0 / bitrate=1417 / ratetol=1.0 / qcomp=0.65 / qpmin=0:0:0 / qpmax=69:69:69 / qpstep=4 / cplxblur=20.0 / qblur=0.5 / vbv_maxrate=50000 / vbv_bufsize=62500 / nal_hrd=none / filler=0 / ip_ratio=1.40 / pb_ratio=1.30 / aq=3:0.90 / aq-sensitivity=10.00 / aq-factor=1.00:1.00:1.00 / aq2=0 / aq3=0
Audio
ID : 2
Format : AC-3
Format/Info : Audio Coding 3
Mode extension : CM (complete main)
Codec ID : A_AC3
Duration : 1h 51mn
Bit rate mode : Constant
Bit rate : 384 Kbps
Channel(s) : 6 channels
Channel positions : Front: L C R, Side: L R, LFE
Sampling rate : 48.0 KHz
Bit depth : 16 bits
Compression mode : Lossy
Stream size : 307 MiB (21%)
Language : Russian
Text
ID : 3
Format : UTF-8
Codec ID : S_TEXT/UTF8
Codec ID/Info : UTF-8 Plain Text
Title : Forced
Language : Russian
Menu
00:00:00.000 : en:Chapter 1
00:07:46.466 : en:Chapter 2
00:13:47.909 : en:Chapter 3
00:23:38.834 : en:Chapter 4
00:30:28.660 : en:Chapter 5
00:37:27.036 : en:Chapter 6
00:45:36.775 : en:Chapter 7
00:55:40.586 : en:Chapter 8
01:05:02.106 : en:Chapter 9
01:12:14.454 : en:Chapter 10
01:17:50.332 : en:Chapter 11
01:24:56.006 : en:Chapter 12
01:34:04.970 : en:Chapter 13
01:39:50.650 : en:Chapter 14

Скриншоты








Последний раз редактировалось: Grock (2016-07-21 19:30), всего редактировалось 1 раз

Создавать темы 21-Июл-2016 17:45

[Профиль]  [ЛС] 

Grock ®

Стаж: 6 лет 8 месяцев

Сообщений: 637

Симпатии: 113

Поправка aa

Создавать темы 21-Июл-2016 19:31

[Профиль]  [ЛС] 

Powered by GMC

Стаж: 2 года

Сообщений: 202

Симпатии: 31

978054Поправка aa
а зачем Временная??

Создавать темы 21-Июл-2016 19:45

[Профиль]  [ЛС] 

Grock ®

Стаж: 6 лет 8 месяцев

Сообщений: 637

Симпатии: 113

Powered by GMC, Редактировал оформление, забыл переключить на "проверено")

Создавать темы 22-Июл-2016 08:33

[Профиль]  [ЛС] 
Показать сообщения:    
Ответить на тему

Текущее время: 24-Окт 16:19

Часовой пояс: UTC + 5



Вы не можете начинать темы
Вы не можете отвечать на сообщения
Вы не можете редактировать свои сообщения
Вы не можете удалять свои сообщения
Вы не можете голосовать в опросах
Вы не можете прикреплять файлы к сообщениям
Вы не можете скачивать файлы