ДМБ 1-5 Серии (Александр Басов, Марат Рафиков) [2001 г., комедия, DVDRip]

Ответить на тему
 

inviz ®

Стаж: 5 лет 11 месяцев

Сообщений: 153

Симпатии: 6

ДМБ 1-5 Серии
Год выпуска: 2001
Жанр: комедия
Продолжительность: 01:05:49
Режиссер: Александр Басов, Марат Рафиков
В ролях: Петр Коршунков, Станислав Дужников, Владислав Копп, Алексей Панин, Роман Радов, Сергей Арцибашев, Виктор Павлов, Павел Сиротин, Александр Пашковский, Дмитрий Неживой
Описание: Генштаб наехал на генерала наших героев, чтобы нормы по лыжам сдали. А стояло лето. Деды слегли в лазарет с коньюктивитом. Салаги надели лыжи и под надзором двух дедов пошли на лыжах по траве. На пути им встретилась водная преграда, не отмеченная на карте. Бомбу послали брод искать, а наткнулись на медведицу (Маша). Бойцы засели в избе и начали бороться с диким зверем, умеющем ходить на передних лапах. Так начинается 4-ый выпуск ДМБ, и в нем будут новые армейские приколы и шуточки.
Качество: DVDRip
Формат: AVI
Видео кодек: XviD
Аудио кодек: MP3
Видео: 688x384 (1.79:1), 25 fps, XviD build 64 ~1446 kbps avg, 0.22 bit/pixel
Аудио: 48 kHz, MPEG Layer 3, 2 ch, ~128.00 kbps avg

MediaInfo

General
Complete name : D:\Релизы\(2001) ДМБ-004.avi
Format : AVI
Format/Info : Audio Video Interleave
File size : 746 MiB
Duration : 1h 5mn
Overall bit rate : 1 584 Kbps
Writing application : VirtualDubMod 1.5.10.3 | www.virtualdub-fr.org || (build 2550/release)
Writing library : VirtualDubMod build 2550/release
Video
ID : 0
Format : MPEG-4 Visual
Format profile : Advanced [email protected]
Format settings, BVOP : 1
Format settings, QPel : No
Format settings, GMC : No warppoints
Format settings, Matrix : Custom
Codec ID : XVID
Codec ID/Hint : XviD
Duration : 1h 5mn
Bit rate : 1 446 Kbps
Width : 688 pixels
Height : 384 pixels
Display aspect ratio : 16:9
Frame rate : 25.000 fps
Color space : YUV
Chroma subsampling : 4:2:0
Bit depth : 8 bits
Scan type : Progressive
Compression mode : Lossy
Bits/(Pixel*Frame) : 0.219
Stream size : 681 MiB (91%)
Writing library : XviD 64
Audio
ID : 1
Format : MPEG Audio
Format version : Version 1
Format profile : Layer 3
Mode : Joint stereo
Mode extension : MS Stereo
Codec ID : 55
Codec ID/Hint : MP3
Duration : 1h 5mn
Bit rate mode : Constant
Bit rate : 128 Kbps
Channel(s) : 2 channels
Sampling rate : 48.0 KHz
Compression mode : Lossy
Stream size : 60.3 MiB (8%)
Alignment : Aligned on interleaves
Interleave, duration : 40 ms (1.00 video frame)
Interleave, preload duration : 504 ms
Writing library : LAME3.98r
Encoding settings : -m j -V 4 -q 2 -lowpass 17 -b 128

Скриншоты 3 серии





Скриншоты









Последний раз редактировалось: inviz (2012-12-27 19:15), всего редактировалось 6 раз(а)

Создавать темы 23-Дек-2012 22:42

[Профиль]  [ЛС] 

inviz ®

Стаж: 5 лет 11 месяцев

Сообщений: 153

Симпатии: 6

Скоро будут серии 3-2-1

Создавать темы 23-Дек-2012 22:45

[Профиль]  [ЛС] 

inviz ®

Стаж: 5 лет 11 месяцев

Сообщений: 153

Симпатии: 6

Обновите свои фильтры у кого не качает

Создавать темы 23-Дек-2012 23:35

[Профиль]  [ЛС] 

nikita

Стаж: 7 лет

Сообщений: 82

Симпатии: 4

спасибо

Создавать темы 24-Дек-2012 15:09

[Профиль]  [ЛС] 

Vfhfn

Стаж: 5 лет 6 месяцев

Сообщений: 20

Симпатии: 1

Скоро будут серии 3-2-1
Ждем с нетерпением. Спасибо

Создавать темы 27-Дек-2012 01:33

[Профиль]  [ЛС] 

inviz ®

Стаж: 5 лет 11 месяцев

Сообщений: 153

Симпатии: 6

Добавил 3 серию

Создавать темы 27-Дек-2012 19:11

[Профиль]  [ЛС] 

oleg9109

Стаж: 5 лет 4 месяца

Сообщений: 4

встаньте на раздачу хочу посмотреть

Создавать темы 23-Июл-2016 17:47

[Профиль]  [ЛС] 
Показать сообщения:    
Ответить на тему

Текущее время: 17-Окт 10:58

Часовой пояс: UTC + 5



Вы не можете начинать темы
Вы не можете отвечать на сообщения
Вы не можете редактировать свои сообщения
Вы не можете удалять свои сообщения
Вы не можете голосовать в опросах
Вы не можете прикреплять файлы к сообщениям
Вы не можете скачивать файлы