Поклонник / Fan (Маниш Шарма / Manish Sharma) [2016, Индия, Боевики, Драмы, Триллеры, HDRip] (DVO : Indian Cinema Group) (Original Eng)

Ответить на тему
 

UzVersace ®

Стаж: 5 лет 10 месяцев

Сообщений: 10

Симпатии: 2

Поклонник / Fan
Страна: Индия
Жанр: Боевики, Драмы, Триллеры
Год выпуска: 2016
Продолжительность: 02:18:16
Перевод: Профессиональный (двухголосый закадровый) Доп. инфо о переводе: Indian Cinema Group
Cубтитры: нет
Оригинальная аудиодорожка: английский
Режиссер: Маниш Шарма / Manish Sharma
В ролях: Шах Рукх Кхан, Джоэль Коисси, Halima Nagori, Ли Николас Харрис, Sayani Gupta, Гленн Уэбстер, Мариола Яворска, Захари Соффин, Памела Бетси Купер, Пол Блэкуэлл
Описание: Горав, большой фанат кино героя Аряна Канна, направлялся в Мумбаи, чтобы поздравить своего кумира с днём рождения. Но всё пошло не по плану, и одержимость Горава перешла черту.
Качество видео: HDRip
Формат видео: AVI
Видео: XviD, 720x304, 24.000 fps
Аудио: AC-3, 48000 Hz, 448 Kbps, 6 ch
Аудио 2: AC-3, 48000 Hz, 224 Kbps, 2 ch

MediaInfo

General
Complete name : D:\Fan.2016.HDRip.Rus.avi
Format : AVI
Format/Info : Audio Video Interleave
Format profile : OpenDML
File size : 2.19 GiB
Duration : 2h 18mn
Overall bit rate : 2 267 Kbps
Writing application : VirtualDubModRus 1.5.10.2 (build 2542/release)
Writing library : VirtualDubMod build 2542/release
Video
ID : 0
Format : MPEG-4 Visual
Format profile : Advanced [email protected]
Format settings, BVOP : 1
Format settings, QPel : No
Format settings, GMC : No warppoints
Format settings, Matrix : Default (MPEG)
Codec ID : XVID
Codec ID/Hint : XviD
Duration : 2h 18mn
Bit rate : 1 577 Kbps
Width : 720 pixels
Height : 304 pixels
Display aspect ratio : 2.35:1
Frame rate : 24.000 fps
Color space : YUV
Chroma subsampling : 4:2:0
Bit depth : 8 bits
Scan type : Progressive
Compression mode : Lossy
Bits/(Pixel*Frame) : 0.300
Stream size : 1.52 GiB (70%)
Writing library : XviD 73
Audio #1
ID : 1
Format : AC-3
Format/Info : Audio Coding 3
Mode extension : CM (complete main)
Format settings, Endianness : Big
Codec ID : 2000
Duration : 2h 18mn
Bit rate mode : Constant
Bit rate : 448 Kbps
Channel(s) : 6 channels
Channel positions : Front: L C R, Side: L R, LFE
Sampling rate : 48.0 KHz
Frame rate : 31.250 fps (1536 spf)
Compression mode : Lossy
Stream size : 443 MiB (20%)
Alignment : Split accross interleaves
Interleave, duration : 42 ms (1.00 video frame)
Interleave, preload duratio : 500 ms
Audio #2
ID : 2
Format : AC-3
Format/Info : Audio Coding 3
Mode extension : CM (complete main)
Format settings, Endianness : Big
Codec ID : 2000
Duration : 2h 18mn
Bit rate mode : Constant
Bit rate : 224 Kbps
Channel(s) : 2 channels
Channel positions : Front: L R
Sampling rate : 48.0 KHz
Frame rate : 31.250 fps (1536 spf)
Compression mode : Lossy
Stream size : 222 MiB (10%)
Alignment : Aligned on interleaves
Interleave, duration : 42 ms (1.00 video frame)
Interleave, preload duratio : 512 ms

Скриншот c названием фильма

Скриншоты








Создавать темы 23-Июл-2016 20:00

[Профиль]  [ЛС] 

Топик был перенесен из форума Фильмы за 2016 в форум Индийское кино
ruhal

Создавать темы 23-Июл-2016 20:42

 

Admiral

Стаж: 3 года 11 месяцев

Сообщений: 312

Симпатии: 347

UzVersace, есть такой фильм, помогу с раздачей))

Создавать темы 23-Июл-2016 23:58

[Профиль]  [ЛС] 

UzVersace ®

Стаж: 5 лет 10 месяцев

Сообщений: 10

Симпатии: 2

978131UzVersace, есть такой фильм, помогу с раздачей))
Санкс Бандерос. Отдача 575КБ/c, какой провайдер?

Создавать темы 24-Июл-2016 18:08

[Профиль]  [ЛС] 

Admiral

Стаж: 3 года 11 месяцев

Сообщений: 312

Симпатии: 347

UzVersace, УО, тариф Ран-1. Оптоволоконный кабель)) Стабильная скорость отдачи и загрузки: 600 кбайт/сек

Создавать темы 25-Июл-2016 13:40

[Профиль]  [ЛС] 
Показать сообщения:    
Ответить на тему

Текущее время: 13-Дек 04:42

Часовой пояс: UTC + 5



Вы не можете начинать темы
Вы не можете отвечать на сообщения
Вы не можете редактировать свои сообщения
Вы не можете удалять свои сообщения
Вы не можете голосовать в опросах
Вы не можете прикреплять файлы к сообщениям
Вы не можете скачивать файлы