Клянусь тобой, любимая / Sanam Teri Kasam (Радхика Рао, Винэй Сапру) [2016, Индия, Драма, мелодрама, WEB-DLRip]

Ответить на тему
 

eabdumalik ®

Стаж: 1 год 9 месяцев

Сообщений: 12

Симпатии: 1

Клянусь тобой, любимая / Sanam Teri Kasam / (Радхика Рао, Винэй Сапру) [2016 г.,Драма, мелодрама, WEB-DLRip]
Страна: Индия
Жанр: Драма, мелодрама
Год выпуска: 2016
Продолжительность: 02:34:04
Перевод: Любительский (двухголосый закадровый)
Режиссер: Радхика Рао, Винэй Сапру
В ролях: Мавра Хокин, Харшвардхан Ране, Виджай Рааз, Мурли Шарма, Анураг Синха, Дивьетта Кавери
Описание: Сарасвати – простая девушка, работающая в библиотеке. О таких, как она, говорят лишь одно: книжный червь, невзрачная простушка, которой далеко до идеала красоты. Именно эта простота мешает Сарасвати выйти замуж и наконец, уехать из отчего дома. Родители цепляются за любую возможность о предложениях на замужество, но отказы со стороны потенциальных женихов следуют один за другим. Младшая сестра Кавери тихонько ненавидит Сарасвати за то, что по её вине она не может первой выйти замуж за своего возлюбленного и переехать в США. Устав от упрёков со стороны своих родителей, сестры и коллег, Сарасвати наконец, решает взять свою судьбу в свои руки. Она просит помощи у своего соседа Индера, который с момента своего заселения в дом, старался всячески избегать её. После долгих уговоров девушки, Индер всё-таки соглашается помочь Сарасвати с преображением и найти своё женское счастье в лице её коллеги Абхиманью, в которого она тайно и давно влюблена...
Качество видео: WEB-DLRip
Формат видео: AVI
Видео: 720x304 (2.37:1), 23.976 fps, XviD build 65 ~1565 kbps avg, 0.30 bit/pixel
Аудио: 48 kHz, AC3 Dolby Digital, 3/2 (L,C,R,l,r) + LFE ch, ~448 kbps

MediaInfo

D:\DCDownloads\Sanam Teri Kasam (2016) WEB-DLRip.avi
General
Complete name : D:\DCDownloads\Sanam Teri Kasam (2016) WEB-DLRip.avi
Format : AVI
Format/Info : Audio Video Interleave
Format profile : OpenDML
File size : 2.17 GiB
Duration : 2h 34mn
Overall bit rate : 2 021 Kbps
Movie name : Sanam Teri Kasam (2016) WEB-DLRip
Director : Maksmet
Writing application : VirtualDubModRus 1.5.10.2 (build 2542/release)
Original source form/Name : Movie
Comment : 28.03.2016
Video #0
ID : 0
Format : MPEG-4 Visual
Format profile : Advanced [email protected]
Format settings, BVOP : Yes
Format settings, QPel : No
Format settings, GMC : No warppoints
Format settings, Matrix : Custom
Codec ID : XVID
Codec ID/Hint : XviD
Duration : 2h 34mn
Bit rate : 1 561 Kbps
Width : 720 pixels
Height : 304 pixels
Display aspect ratio : 2.35:1
Frame rate : 23.976 fps
Color space : YUV
Chroma subsampling : 4:2:0
Bit depth : 8 bits
Scan type : Progressive
Bits/(Pixel*Frame) : 0.297
Stream size : 1.68 GiB (77%)
Writing library : XviD 65
Audio #1
ID : 1
Format : AC-3
Format/Info : Audio Coding 3
Mode extension : CM (complete main)
Codec ID : 2000
Duration : 2h 34mn
Bit rate mode : Constant
Bit rate : 448 Kbps
Channel(s) : 6 channels
Channel positions : Front: L C R, Side: L R, LFE
Sampling rate : 48.0 KHz
Bit depth : 16 bits
Stream size : 494 MiB (22%)
Alignment : Split accross interleaves
Interleave, duration : 42 ms (1.00 video frame)
Interleave, preload duration : 500 ms

Скриншоты





Последний раз редактировалось: eabdumalik (2016-07-30 17:27), всего редактировалось 1 раз

Создавать темы 30-Июл-2016 15:24

[Профиль]  [ЛС] 

eabdumalik ®

Стаж: 1 год 9 месяцев

Сообщений: 12

Симпатии: 1

Adminlar uzr hatolik bulib tugri qusholmadim Iltimos uchirib tashlang!!!

Создавать темы 30-Июл-2016 15:27

[Профиль]  [ЛС] 

EasTanBuLe

Стаж: 5 лет 6 месяцев

Сообщений: 13

978407Adminlar uzr hatolik bulib tugri qusholmadim Iltimos uchirib tashlang!!!
nimasi hato buni

Создавать темы 08-Ноя-2016 00:37

[Профиль]  [ЛС] 
Показать сообщения:    
Ответить на тему

Текущее время: 16-Авг 22:36

Часовой пояс: UTC + 5



Вы не можете начинать темы
Вы не можете отвечать на сообщения
Вы не можете редактировать свои сообщения
Вы не можете удалять свои сообщения
Вы не можете голосовать в опросах
Вы не можете прикреплять файлы к сообщениям
Вы не можете скачивать файлы