Мы ещё здесь / We Are Still Here (Тед Гейган / Ted Geoghegan) [2015, США, ужасы, HDRip-AVC] Dub (Line)

Ответить на тему
 

kat222000 ®

Стаж: 6 лет 7 месяцев

Сообщений: 608

Симпатии: 1055

Мы ещё здесь / We Are Still Here«Дом, где вас ждут» Страна: США
Жанр: ужасы
Год выпуска: 2015
Продолжительность: 01:23:27
Перевод: Профессиональный (полное дублирование) | Line
Субтитры: нет-Режиссер: Тед Гейган / Ted Geoghegan-В ролях: Барбара Крэмптон, Эндрю Сенсениг, Лиза Мари, Ларри Фесенден, Монте Маркэм, Сьюзэн Гибни, Майкл Патрик, Келси Дакота, Гай Гане, Элисса Бри-Описание: После гибели сына в автокатастрофе уже немолодая семейная пара решает радикально сменить обстановку и переезжает в старинный дом в небольшой деревушке в Новой Англии. Вскоре после переезда супруги начинают ощущать чье-то присутствие рядом — женщина считает, что это призрак их погибшего сына, но все указывает на нечто более зловещее и опасное.- -Возраст: зрителям, достигшим 16 лет-Рейтинг MPAA: лицам до 17 лет обязательно присутствие взрослого-Качество видео: HDRip-AVC
Формат видео: MKV
Видео кодек: AVC
Аудио кодек: AC3
Видео: 1024x432 (2.40:1), 23.976 fps, AVC ~2 500 kbps avg, 0.236 bit/pixel
Аудио 1: 48 kHz, AC3 Dolby Digital, 2/0 (L,R) ch, ~192.00 kbps avg (Русский | DUB)
Аудио 2: 48 kHz, AC3 Dolby Digital, 3/2 (L,C,R,l,r) + LFE ch, ~448.00 kbps avg (English | Original)
Навигация по главам: есть- -

〤 ОтчетМедиаИнфо 〤

Format : Matroska
Format version : Version 4 / Version 2
File size : 1.83 GiB
Duration : 1h 23mn
Overall bit rate : 3 144 Kbps
Writing application : XviD4PSP 7.0.280 DAILY
Writing library : Lavf57.25.100
ENCODING_INFO : MATROSKA,WEBM > MKV / H264 > X264 VBR-2P 2500kbps Произвольный / AC3 > AC3 CBR 192kbps / DTS > AC3 CBR 448kbps
MIMETYPE : image/png
FILENAME : cover.png
DURATION : 00:00:00.000000000
Attachements : cover.png
Video
ID : 1
Format : AVC
Format/Info : Advanced Video Codec
Format profile : [email protected]
Format settings, CABAC : Yes
Format settings, ReFrames : 14 frames
Codec ID : V_MPEG4/ISO/AVC
Bit rate : 2 500 Kbps
Width : 1 024 pixels
Height : 432 pixels
Display aspect ratio : 2.40:1
Frame rate mode : Variable
Original frame rate : 23.976 fps
Color space : YUV
Chroma subsampling : 4:2:0
Bit depth : 8 bits
Scan type : Progressive
Bits/(Pixel*Frame) : 0.236
Writing library : x264 core 148 r2705M 3f5ed56
Encoding settings : cabac=1 / ref=14 / deblock=1:-3:-3 / analyse=0x1:0x131 / me=umh / subme=11 / psy=1 / psy_rd=1.00:0.20 / mixed_ref=0 / me_range=32 / chroma_me=1 / trellis=2 / 8x8dct=0 / cqm=0 / deadzone=21,11 / fast_pskip=1 / chroma_qp_offset=-6 / threads=12 / lookahead_threads=3 / sliced_threads=0 / nr=0 / decimate=0 / interlaced=0 / bluray_compat=0 / constrained_intra=0 / bframes=11 / b_pyramid=2 / b_adapt=2 / b_bias=10 / direct=3 / weightb=1 / open_gop=0 / weightp=2 / keyint=230 / keyint_min=23 / scenecut=40 / intra_refresh=0 / rc_lookahead=40 / rc=2pass / mbtree=1 / bitrate=2500 / ratetol=1.0 / qcomp=0.60 / qpmin=0 / qpmax=69 / qpstep=4 / cplxblur=20.0 / qblur=0.5 / ip_ratio=1.40 / aq=1:1.00
Language : English
Default : Yes
Forced : No
ENCODING_INFO : x264 - core 148 r2597 e86f3a1 - H.264/MPEG-4 AVC codec - Copyleft 2003-2015 - http://www.videolan.org/x264.html - options: cabac=1 ref=5 deblock=1:0:0 analyse=0x3:0x133 me=umh subme=7 psy=1 psy_rd=1.00:0.00 mixed_ref=1 me_range=16 chroma_me=1 trellis=1 8x8dct=1 cqm=0 deadzone=21,11 fast_pskip=0 chroma_qp_offset=-2 threads=18 lookahead_threads=3 sliced_threads=0 nr=0 decimate=1 interlaced=0 bluray_compat=0 constrained_intra=0 bframes=3 b_pyramid=2 b_adapt=1 b_bias=0 direct=1 weightb=1 open_gop=0 weightp=2 keyint=250 keyint_min=23 scenecut=40 intra_refresh=0 rc_lookahead=40 rc=2pass mbtree=1 bitrate=9737 ratetol=1.0 qcomp=0.60 qpmin=0 qpmax=69 qpstep=4 cplxblur=20.0 qblur=0.5 ip_ratio=1.40 aq=1:1.00
DURATION : 01:23:27.007000000
Audio #1
ID : 2
Format : AC-3
Format/Info : Audio Coding 3
Mode extension : CM (complete main)
Format settings, Endianness : Big
Codec ID : A_AC3
Duration : 1h 23mn
Bit rate mode : Constant
Bit rate : 192 Kbps
Channel(s) : 2 channels
Channel positions : Front: L R
Sampling rate : 48.0 KHz
Bit depth : 32 bits
Compression mode : Lossy
Stream size : 115 MiB (6%)
Language : Russian
Default : Yes
Forced : Yes
DURATION : 01:23:27.072000000
Audio #2
ID : 3
Format : AC-3
Format/Info : Audio Coding 3
Mode extension : CM (complete main)
Format settings, Endianness : Big
Codec ID : A_AC3
Duration : 1h 23mn
Bit rate mode : Constant
Bit rate : 448 Kbps
Channel(s) : 6 channels
Channel positions : Front: L C R, Side: L R, LFE
Sampling rate : 48.0 KHz
Bit depth : 32 bits
Compression mode : Lossy
Stream size : 267 MiB (14%)
Language : English
Default : Yes
Forced : No
DURATION : 01:23:27.072000000
Menu
00:00:00.000 : :00:00:00.000
00:06:31.141 : :00:06:31.141
00:11:33.276 : :00:11:33.276
00:14:19.984 : :00:14:19.984
00:19:03.184 : :00:19:03.184
00:21:04.805 : :00:21:04.805
00:26:18.368 : :00:26:18.368
00:32:31.074 : :00:32:31.074
00:36:30.230 : :00:36:30.230
00:41:35.827 : :00:41:35.827
00:45:08.664 : :00:45:08.664
00:49:43.022 : :00:49:43.022
00:52:06.999 : :00:52:06.999
00:56:40.897 : :00:56:40.897
01:01:29.853 : :01:01:29.853
01:06:57.680 : :01:06:57.680
01:11:09.932 : :01:11:09.932
01:16:34.882 : :01:16:34.882
01:20:47.051 : :01:20:47.051
-

〤 Скриншоты 〤



© Оформление by kat222000

Создавать темы 03-Авг-2016 22:25

[Профиль]  [ЛС] 
Показать сообщения:    
Ответить на тему

Текущее время: 20-Ноя 05:32

Часовой пояс: UTC + 5



Вы не можете начинать темы
Вы не можете отвечать на сообщения
Вы не можете редактировать свои сообщения
Вы не можете удалять свои сообщения
Вы не можете голосовать в опросах
Вы не можете прикреплять файлы к сообщениям
Вы не можете скачивать файлы